[iPad] Ты водишь! / Tag (Джефф Томсич / Jeff Tomsic ) [2018, США, Комедия, BDRip, SD (576p)] DUB + Original + sub (rus, eng) 

Цитировать
Ты водишь! / Tag
«Основано на реальных событиях. Зуб даём!»
6.596 / 10 6.60 / 10
- Год выпуска: 2018
Страна: США
Жанр: Комедия
Продолжительность: 01:40:33
Перевод: Дублированный (Лицензия)
Оригинальная аудиодорожка: Есть
Cубтитры: Русские форсированные, Русские, Английские
Режиссёр: Джефф Томсич
Сценарий: Марк Стеилен, Роб МакКиттрик, Russell Adams
Продюсер: Ричард Бренер, Тодд Гарнер, Уолтер Хамада
Оператор: Ларри Блэнфорд
Композитор: Джермейн Франко
Художник: Дэвид Сэндфер, Шоун Д. Бронсон, Присцилла Эллиотт
Монтаж: Джош Крокетт
В ролях: Эд Хелмс, Джереми Реннер, Джон Хэмм, Джейк Джонсон, Хэннибал Бёресс, Аннабелль Уоллис, Айла Фишер, Рашида Джонс, Лил Релл, Нора Данн
Бюджет: $28 000 000
Сборы в США: $54 547 470
Сборы в мире: + $23 400 000 = $77 947 470
Сборы в России: $2 635 882
Мировая премьера: 14 июня 2018
Премьера (РФ): 28 июня 2018, «Каро-Премьер»
Цифровой релиз: 5 сентября 2018, «Warner Bros.»
Описание: Каждый год в течение месяца пятеро друзей участвуют в беспощадно навороченной версии игры в кошки-мышки. Они играют в нее с первого класса, чтобы, рискуя собственной шеей, работой и отношениями, одолеть противника с победоносным криком: «Ты водишь!» В этом году кошки-мышки приходятся на свадьбу единственного непобежденного игрока, что должно сделать из него легкую мишень. Но он знает, что они придут… и он готов.-Качество исходника: Blu-Ray (BlueBird)
Качество: BDRip
Тип: SD (576p)
Контейнер: M4V
Видео: H.264, 1024x432, 2.40:1, 2 200 Kbps, 23.976 (24000/1001) fps
Аудио 1: Русский/Дублированный (Лицензия), AAC LC / 2.0 / 128 Kbps / 48.0 KHz
Аудио 2: Английский/Оригинальная дорожка , AAC LC / 2.0 / 128 Kbps / 48.0 KHz
Субтитры 1: Русские форсированные
Субтитры 2: Русские полные
Субтитры 3: Английские полные
-

iTunes Meta Tags

Sort Name: Tag (2018)
XID: Apple:vendor_id:2018-759874
contentID: 1393360066
Copyright: © 2018 Warner Bros. Entertainment Inc. All Rights Reserved.
Screenwriters: Марк Стеилен, Роб МакКиттрик, Russell Adams
Producers: Ричард Бренер, Тодд Гарнер, Уолтер Хамада
Director: Джесси Джонсон
Cast:  Эд Хелмс, Лил Релл, Джон Хэмм, Аннабелль Уоллис, Джейк Джонсон, Айла Фишер, Хэннибал Бёресс, Нора Данн, Стив Берг, Джереми Реннер
Studio: New Line
Rating: 5
Long Description: Каждый год в течение месяца пятеро друзей участвуют в беспощадно навороченной версии игры в кошки-мышки. Они играют в нее с первого класса, чтобы, рискуя собственной шеей, работой и отношениями, одолеть противника с победоносным криком: «Ты водишь!» В этом году кошки-мышки приходятся на свадьбу единственного непобежденного игрока, что должно сделать из него легкую мишень. Но он знает, что они придут… и он готов.
Description: Каждый год в течение месяца пятеро друзей участвуют в беспощадно навороченной версии игры в кошки-мышки. Они играют в нее с первого класса, чтобы, рискуя собственной шеей, работой и отношениями, одолеть противника с победоносным криком: «Ты водишь!»
Release Date: 2018-06-15T07:00:00Z
Genre: Comedy
Artist: Jeff Tomsic
Name: Tag (2018)

MediaInfo

General
Complete name                            : /Users/imac/HandBrake/Tag.(SD).(pk).m4v
Format                                   : MPEG-4
Codec ID                                 : M4V  (M4V /M4A /mp42/isom)
File size                                : 1.73 GiB
Duration                                 : 1h 40mn
Overall bit rate mode                    : Variable
Overall bit rate                         : 2 456 Kbps
Movie name                               : Tag (2018)
Performer                                : Jeff Tomsic
Director                                 : Джесси Джонсон
Actor                                    :  Эд Хелмс / Лил Релл / Джон Хэмм / Аннабелль Уоллис / Джейк Джонсон / Айла Фишер / Хэннибал Бёресс / Нора Данн / Стив Берг / Джереми Реннер
Screenplay by                            : Марк Стеилен / Роб МакКиттрик / Russell Adams
Producer                                 : Ричард Бренер / Тодд Гарнер / Уолтер Хамада
Production studio                        : New Line
Genre                                    : Comedy
ContentType                              : Short Film
Description                              : Каждый год в течение месяца пятеро друзей участвуют в беспощадно навороченной версии игры в кошки-мышки. Они играют в нее с первого класса, чтобы, рискуя собственной шеей, работой и отношениями, одолеть противника с победоносным криком: «Ты водишь!»
Recorded date                            : UTC 2018-06-15 07:00:00
Encoded date                             : UTC 2018-10-21 13:40:25
Tagged date                              : UTC 2018-10-21 13:41:59
Copyright                                : © 2018 Warner Bros. Entertainment Inc. All Rights Reserved.
Cover                                    : Yes
Rating                                   : None
Title/Sort                               : Tag (2018)
LongDescription                          : Каждый год в течение месяца пятеро друзей участвуют в беспощадно навороченной версии игры в кошки-мышки. Они играют в нее с первого класса, чтобы, рискуя собственной шеей, работой и отношениями, одолеть противника с победоносным криком: «Ты водишь!» В этом году кошки-мышки приходятся на свадьбу единственного непобежденного игрока, что должно сделать из него легкую мишень. Но он знает, что они придут… и он готов.
AppleStoreCatalogID                      : 1393360066
Vendor                                   : Apple:vendor_id:2018-759874
ContentRating                            : mpaa|R|400|
Video #1
ID                                       : 1
Format                                   : AVC
Format/Info                              : Advanced Video Codec
Format profile                           : High@L3.1
Format settings                          : CABAC / 9 Ref Frames
Format settings, CABAC                   : Yes
Format settings, ReFrames                : 9 frames
Codec ID                                 : avc1
Codec ID/Info                            : Advanced Video Coding
Duration                                 : 1h 40mn
Source duration                          : 1h 40mn
Bit rate                                 : 2 200 Kbps
Width                                    : 1 024 pixels
Height                                   : 432 pixels
Display aspect ratio                     : 2.40:1
Frame rate mode                          : Variable
Frame rate                               : 23.976 (24000/1001) fps
Minimum frame rate                       : 23.974 fps
Maximum frame rate                       : 23.981 fps
Color space                              : YUV
Chroma subsampling                       : 4:2:0
Bit depth                                : 8 bits
Scan type                                : Progressive
Bits/(Pixel*Frame)                       : 0.207
Stream size                              : 1.54 GiB (89%)
Source stream size                       : 1.54 GiB (89%)
Title                                    : Main Program
Writing library                          : x264 core 155 r2901 7d0ff22
Encoding settings                        : cabac=1 / ref=9 / deblock=1:0:0 / analyse=0x3:0x113 / me=umh / subme=9 / psy=1 / psy_rd=1.00:0.00 / mixed_ref=1 / me_range=32 / chroma_me=1 / trellis=1 / 8x8dct=1 / cqm=0 / deadzone=21,11 / fast_pskip=1 / chroma_qp_offset=-2 / threads=13 / lookahead_threads=1 / sliced_threads=0 / nr=0 / decimate=1 / interlaced=0 / bluray_compat=0 / constrained_intra=0 / bframes=6 / b_pyramid=2 / b_adapt=2 / b_bias=0 / direct=1 / weightb=1 / open_gop=0 / weightp=2 / keyint=240 / keyint_min=24 / scenecut=40 / intra_refresh=0 / rc_lookahead=40 / rc=2pass / mbtree=1 / bitrate=2200 / ratetol=1.0 / qcomp=0.60 / qpmin=0 / qpmax=69 / qpstep=4 / cplxblur=20.0 / qblur=0.5 / ip_ratio=1.40 / aq=1:1.00
Language                                 : English
Encoded date                             : UTC 2018-10-21 13:40:26
Tagged date                              : UTC 2018-10-21 13:40:32
Color range                              : Limited
Color primaries                          : BT.709
Transfer characteristics                 : BT.709
Matrix coefficients                      : BT.709
Menus                                    : 7,8
Codec configuration box                  : avcC
Video #2
ID                                       : 8
Format                                   : JPEG
Codec ID                                 : jpeg
Duration                                 : 1h 40mn
Bit rate mode                            : Variable
Bit rate                                 : 488 bps
Width                                    : 640 pixels
Height                                   : 270 pixels
Display aspect ratio                     : 2.40:1
Frame rate mode                          : Variable
Frame rate                               : 0.002 fps
Minimum frame rate                       : 0.001 fps
Maximum frame rate                       : 0.004 fps
Color space                              : YUV
Chroma subsampling                       : 4:2:0
Bit depth                                : 8 bits
Compression mode                         : Lossy
Bits/(Pixel*Frame)                       : 1.412
Stream size                              : 328 KiB (0%)
Title                                    : Chapter Images
Language                                 : English
Default                                  : No
Encoded date                             : UTC 2018-10-21 13:40:39
Tagged date                              : UTC 2018-10-21 13:40:39
Menu For                                 : 1
ColorSpace_ICC                           : RGB
Audio #1
ID                                       : 2
Format                                   : AAC LC
Format/Info                              : Advanced Audio Codec Low Complexity
Codec ID                                 : mp4a-40-2
Duration                                 : 1h 40mn
Source duration                          : 1h 40mn
Bit rate mode                            : Variable
Bit rate                                 : 125 Kbps
Maximum bit rate                         : 208 Kbps
Channel(s)                               : 2 channels
Channel layout                           : L R
Sampling rate                            : 48.0 KHz
Frame rate                               : 46.875 fps (1024 SPF)
Compression mode                         : Lossy
Stream size                              : 90.1 MiB (5%)
Source stream size                       : 90.1 MiB (5%)
Title                                    : Russian Stereo
Language                                 : Russian
Default                                  : Yes
Alternate group                          : 1
Encoded date                             : UTC 2018-10-21 13:40:26
Tagged date                              : UTC 2018-10-21 13:40:36
Subtitles                                : 4,5
Audio #2
ID                                       : 3
Format                                   : AAC LC
Format/Info                              : Advanced Audio Codec Low Complexity
Codec ID                                 : mp4a-40-2
Duration                                 : 1h 40mn
Source duration                          : 1h 40mn
Bit rate mode                            : Variable
Bit rate                                 : 125 Kbps
Maximum bit rate                         : 226 Kbps
Channel(s)                               : 2 channels
Channel layout                           : L R
Sampling rate                            : 48.0 KHz
Frame rate                               : 46.875 fps (1024 SPF)
Compression mode                         : Lossy
Stream size                              : 89.6 MiB (5%)
Source stream size                       : 89.6 MiB (5%)
Title                                    : English Stereo
Language                                 : English
Default                                  : No
Alternate group                          : 1
Encoded date                             : UTC 2018-10-21 13:40:26
Tagged date                              : UTC 2018-10-21 13:40:36
Text #1
ID                                       : 4
Format                                   : Timed Text
Muxing mode                              : sbtl
Codec ID                                 : tx3g
Duration                                 : 1h 35mn
Bit rate mode                            : Variable
Bit rate                                 : 1 bps
Stream size                              : 900 Bytes (0%)
Title                                    : Russian forced
Language                                 : Russian
Default                                  : Yes
Forced                                   : Yes
Alternate group                          : 2
Encoded date                             : UTC 2018-10-21 13:40:26
Tagged date                              : UTC 2018-10-21 13:40:31
Subtitles For                            : 2
Full Alternative                         : 5
Text #2
ID                                       : 5
Format                                   : Timed Text
Muxing mode                              : sbtl
Codec ID                                 : tx3g
Duration                                 : 1h 40mn
Bit rate mode                            : Variable
Bit rate                                 : 144 bps
Stream size                              : 106 KiB (0%)
Title                                    : Russian full
Language                                 : Russian
Default                                  : No
Forced                                   : No
Alternate group                          : 2
Encoded date                             : UTC 2018-10-21 13:40:26
Tagged date                              : UTC 2018-10-21 13:40:33
Subtitles For                            : 2
Forced Alternative                       : 4
Text #3
ID                                       : 6
Format                                   : Timed Text
Muxing mode                              : sbtl
Codec ID                                 : tx3g
Duration                                 : 1h 40mn
Bit rate mode                            : Variable
Bit rate                                 : 103 bps
Stream size                              : 75.7 KiB (0%)
Title                                    : English full
Language                                 : English
Default                                  : No
Forced                                   : No
Alternate group                          : 2
Encoded date                             : UTC 2018-10-21 13:40:26
Tagged date                              : UTC 2018-10-21 13:40:33
Menu #1
00:00:00.000                             : Chapter 1
00:09:24.230                             : Chapter 2
00:17:04.482                             : Chapter 3
00:28:18.864                             : Chapter 4
00:36:56.214                             : Chapter 5
00:46:16.399                             : Chapter 6
00:56:28.260                             : Chapter 7
01:06:09.466                             : Chapter 8
01:18:02.720                             : Chapter 9
01:26:30.102                             : Chapter 10
01:35:55.959                             : Chapter 11
Menu #2
ID                                       : 7
Codec ID                                 : text
Duration                                 : 1h 40mn
Language                                 : English
Encoded date                             : UTC 2018-10-21 13:40:36
Tagged date                              : UTC 2018-10-21 13:40:36
Menu For                                 : 1
00:00:00.000                             : Chapter 1
00:09:24.230                             : Chapter 2
00:17:04.482                             : Chapter 3
00:28:18.864                             : Chapter 4
00:36:56.214                             : Chapter 5
00:46:16.399                             : Chapter 6
00:56:28.260                             : Chapter 7
01:06:09.466                             : Chapter 8
01:18:02.720                             : Chapter 9
01:26:30.102                             : Chapter 10
01:35:55.959                             : Chapter 11
Bit rate mode                            : VBR

x264 лог

x264 [info]: frame I:2013  Avg QP:12.41  size: 84403
x264 [info]: frame P:34595 Avg QP:15.32  size: 24256
x264 [info]: frame B:108061 Avg QP:17.83  size:  6001
x264 [info]: consecutive B-frames:  3.5%  3.3% 11.9% 25.9% 19.8% 29.4%  6.2%
x264 [info]: mb I  I16..4:  8.6% 67.1% 24.3%
x264 [info]: mb P  I16..4:  1.3%  8.0%  2.6%  P16..4: 33.4% 28.5% 17.6%  0.0%  0.0%    skip: 8.7%
x264 [info]: mb B  I16..4:  0.1%  0.6%  0.3%  B16..8: 38.5% 11.7%  3.3%  direct: 3.6%  skip:42.0%  L0:43.6% L1:42.7% BI:13.7%
x264 [info]: 8x8 transform intra:66.5% inter:69.1%
x264 [info]: coded y,uvDC,uvAC intra: 88.3% 87.9% 72.8% inter: 25.0% 22.6% 6.3%
x264 [info]: i16 v,h,dc,p: 31% 14%  5% 50%
x264 [info]: i8 v,h,dc,ddl,ddr,vr,hd,vl,hu: 14% 10%  5%  9% 12% 14% 12% 13% 12%
x264 [info]: i4 v,h,dc,ddl,ddr,vr,hd,vl,hu: 12%  8%  3%  9% 15% 15% 13% 12% 12%
x264 [info]: i8c dc,h,v,p: 41% 21% 22% 16%
x264 [info]: Weighted P-Frames: Y:1.7% UV:0.8%
x264 [info]: ref P L0: 51.9% 11.3% 15.5%  6.3%  4.9%  3.5%  3.1%  1.7%  1.7%  0.1%  0.0%
x264 [info]: ref B L0: 74.8% 11.6%  5.8%  2.8%  2.0%  1.6%  1.2%  0.3%
x264 [info]: ref B L1: 94.2%  5.8%
x264 [info]: kb/s:2197.66

Скриншоты

-

Релиз подготовлен для просмотра на Apple TV, iPad, iPhone, iPod Touch.
Для просмотра данного релиза на компьютере с ОС Windows рекомендуется использовать VLC media player
Вы не можете начинать темы
Вы не можете отвечать на сообщения
Вы не можете редактировать свои сообщения
Вы не можете удалять свои сообщения
Вы не можете голосовать в опросах
Вы не можете прикреплять файлы к сообщениям
Вы можете скачивать файлы
!ВНИМАНИЕ!

Сайт не предоставляет электронные версии произведений, а занимается лишь коллекционированием и каталогизацией ссылок, присылаемых и публикуемых на форуме нашими читателями. Если вы являетесь правообладателем какого-либо представленного материала и не желаете, чтобы ссылка на него находилась в нашем каталоге, свяжитесь с нами, и мы незамедлительно удалим ее. Файлы для обмена на трекере предоставлены пользователями сайта, и администрация не несет ответственности за их содержание. Просьба не заливать файлы, защищенные авторскими правами, а также файлы нелегального содержания!

Искали программы, игры, дополнения, музыка mp3, аниме, аудио книги, журналы? Добро пожаловать на свободный торрент трекер Torrents, у нас можно скачать бесплатно, без смс и регистрации и прочих ограничений лучшие, отборные сборки программ, игр. Скачать торрентом не составит труда даже не опытному пользователю. Раздачи ежедневно обновляются, только лучшие и качественные раздачи, подробные описания и скриншоты. Огромная коллекция программ для работы со звуком, графикой, дизайном, а так же множество плагинов и инструментов к ним с подробной инструкцией и рекомендациями. Прошивки для навигаторов, карты. Разнообразные игры, для Windows, Linux. В коллекцие есть и старые игры любых жанров, Rpg, Action, Shooter, strategy Множество дополнений, модификаций, сценариев для популярных игр в жанре экш, рпг, гонки, стратегии, логические игры. Множество аддонов и сценариев для Microsoft Flight Simulator Большая коллекция книг, учебников. Если нет возможности купить печатное издание - смело скачивайте цифровую версию книги или, быть может, журнала. Не любите читать - можно загрузить бесплатно аудикнигу. Для веб дизайнеров и программистов так же найдется множество специализированного софта, таких как: редакторы с подсветкой, среды программирования, компоненты, системы управления базами данных, разнообразные скрипты и шаблоны. Не так давно у нас появился материал для автолюбителей и владельцев мото - оригинальные и неоригинальные каталоги запчастей, книги и журналы по ремонту и обслуживанию, видеоуроки, статьи по чип тюнингу, прошивкам. Процедура получения контента элементарная, достаточно просто скачать торрент файл и добавить его в загрузку в вашем торрент клиенте. Если у вас нет специального торрент клиента, вы можете его скачать у нас.