[iPad] Человек-муравей и Оса / Ant-Man and the Wasp (Пейтон Рид / Peyton Reed ) [2018, США, Фантастика, боевик, приключения, BDRip, SD (576p)] DUB + Original + sub (rus, eng) 

Цитировать
Человек-муравей и Оса / Ant-Man and the Wasp
«Real heroes. Not actual size»
7.112 / 10 7.30 / 10
- Год выпуска: 2018
Страна: США
Жанр: Фантастика, боевик, приключения
Продолжительность: 01:58:06
Перевод: Дублированный (iTunes)
Оригинальная аудиодорожка: Есть
Cубтитры: Русские форсированные, Русские, Русские SDH, Английские
Режиссёр: Пейтон Рид
Сценарий: Крис МакКенна, Эрик Соммерс, Пол Радд
Продюсер: Виктория Алонсо, Митчелл Белл, Стивен Бруссар
Оператор: Данте Спинотти
Композитор: Кристоф Бек
Художник: Шеперд Франкель, Рэйчел Блок, Майкл Е. Голдман
Монтаж: Дэн Лебентал, Крэйг Вуд
В ролях: Пол Радд, Эванджелин Лилли, Майкл Пенья, Уолтон Гоггинс, Бобби Каннавале, Джуди Грир, Ти-Ай, Давид Дастмалчян, Ханна Джон-Кэймен, Эбби Райдер Фортсон
Бюджет: $162 000 000
Сборы в США: $216 217 676
Сборы в мире: + $405 246 936 = $621 464 612
Сборы в России: $12 800 960
Мировая премьера: 25 июня 2018
Премьера (РФ): 5 июля 2018, «WDSSPR»
Цифровой релиз: 5 октября 2018, «Уолт Дисней Компани СНГ»
Описание: Скотт Лэнг, известный также как Человек-муравей, уже заслужил право оказаться в команде Мстителей. Но желание быть ближе к дочери удерживает его в родном Сан-Франциско — до тех пор, пока доктор Хэнк Пим, создавший когда-то изменяющий размеры своего владельца чудо-костюм, не призывает Скотта присоединиться к новой опасной миссии. А помогать в противостоянии с коварным врагом Человеку-муравью будет новая напарница — Оса.-Качество исходника: BDRemux (BlueBird)
Качество: BDRip
Тип: SD (576p)
Контейнер: M4V
Видео: H.264, 1024x432, 2.40:1, 2 200 Kbps, 23.976 (24000/1001) fps
Аудио 1: Русский/Дублированный (iTunes), AAC LC / 2.0 / 128 Kbps / 48.0 KHz
Аудио 2: Английский/Оригинальная дорожка , AAC LC / 2.0 / 128 Kbps / 48.0 KHz
Аудио 3: Русский/Тифлокомментарии (iTunes), AAC LC / 2.0 / 128 Kbps / 48.0 KHz
Субтитры 1: Русские форсированные
Субтитры 2: Русские полные
Субтитры 3: Русские SDH
Субтитры 4: Английские полные
-

iTunes Meta Tags

Sort Name: Ant-Man and the Wasp
XID: Apple:vendor_id:2018-935940
contentID: 1436675394
Copyright: © 2018 Marvel
Screenwriters: Крис МакКенна, Эрик Соммерс, Пол Радд
Producers: Виктория Алонсо, Митчелл Белл, Стивен Бруссар
Director: Пейтон Рид
Cast: Пол Радд, Эванджелин Лилли, Майкл Пенья, Уолтон Гоггинс, Бобби Каннавале, Джуди Грир, Ти-Ай, Давид Дастмалчян, Ханна Джон-Кэймен, Эбби Райдер Фортсон
Studio: Marvel
Rating: 4
Long Description: Скотт Лэнг, известный также как Человек-муравей, уже заслужил право оказаться в команде Мстителей. Но желание быть ближе к дочери удерживает его в родном Сан-Франциско — до тех пор, пока доктор Хэнк Пим, создавший когда-то изменяющий размеры своего владельца чудо-костюм, не призывает Скотта присоединиться к новой опасной миссии. А помогать в противостоянии с коварным врагом Человеку-муравью будет новая напарница — Оса.
Description: Скотт Лэнг, известный также как Человек-муравей, уже заслужил право оказаться в команде Мстителей. Но желание быть ближе к дочери удерживает его в родном Сан-Франциско — до тех пор, пока доктор Хэнк Пим, создавший когда-то изменяющий размеры своего владельца чудо-костюм, не призывает Скотта присоединиться к новой опасной миссии.
Release Date: 2018-07-06T07:00:00Z
Genre: Action & Adventure
Artist: Peyton Reed
Name: Ant-Man and the Wasp

MediaInfo

General
Complete name                            : /Users/imac/HandBrake/Ant.Man.and.the.Wasp.(SD).(pk).m4v
Format                                   : MPEG-4
Codec ID                                 : M4V  (M4V /M4A /mp42/isom)
File size                                : 2.13 GiB
Duration                                 : 1h 58mn
Overall bit rate mode                    : Variable
Overall bit rate                         : 2 572 Kbps
Movie name                               : Ant-Man and the Wasp
Performer                                : Peyton Reed
Director                                 : Пейтон Рид
Actor                                    : Пол Радд / Эванджелин Лилли / Майкл Пенья / Уолтон Гоггинс / Бобби Каннавале / Джуди Грир / Ти-Ай / Давид Дастмалчян / Ханна Джон-Кэймен / Эбби Райдер Фортсон
Screenplay by                            : Крис МакКенна / Эрик Соммерс / Пол Радд
Producer                                 : Виктория Алонсо / Митчелл Белл / Стивен Бруссар
Production studio                        : Marvel
Genre                                    : Action & Adventure
ContentType                              : Short Film
Description                              : Скотт Лэнг, известный также как Человек-муравей, уже заслужил право оказаться в команде Мстителей. Но желание быть ближе к дочери удерживает его в родном Сан-Франциско — до тех пор, пока доктор Хэнк Пим, создавший когда-то изменяющий размеры своего владельца чудо-костюм, не призывает Скотта присоединиться к новой опасной миссии.
Recorded date                            : UTC 2018-07-06 07:00:00
Encoded date                             : UTC 2018-10-08 08:26:58
Tagged date                              : UTC 2018-10-08 08:27:56
Copyright                                : © 2018 Marvel
Cover                                    : Yes
Rating                                   : None
Title/Sort                               : Ant-Man and the Wasp
LongDescription                          : Скотт Лэнг, известный также как Человек-муравей, уже заслужил право оказаться в команде Мстителей. Но желание быть ближе к дочери удерживает его в родном Сан-Франциско — до тех пор, пока доктор Хэнк Пим, создавший когда-то изменяющий размеры своего владельца чудо-костюм, не призывает Скотта присоединиться к новой опасной миссии. А помогать в противостоянии с коварным врагом Человеку-муравью будет новая напарница — Оса.
AppleStoreCatalogID                      : 1436675394
Vendor                                   : Apple:vendor_id:2018-935940
ContentRating                            : mpaa|PG-13|300|
Video #1
ID                                       : 1
Format                                   : AVC
Format/Info                              : Advanced Video Codec
Format profile                           : High@L3.1
Format settings                          : CABAC / 9 Ref Frames
Format settings, CABAC                   : Yes
Format settings, ReFrames                : 9 frames
Codec ID                                 : avc1
Codec ID/Info                            : Advanced Video Coding
Duration                                 : 1h 58mn
Source duration                          : 1h 58mn
Bit rate                                 : 2 200 Kbps
Width                                    : 1 024 pixels
Height                                   : 432 pixels
Display aspect ratio                     : 2.40:1
Frame rate mode                          : Variable
Frame rate                               : 23.976 (24000/1001) fps
Minimum frame rate                       : 23.974 fps
Maximum frame rate                       : 23.981 fps
Color space                              : YUV
Chroma subsampling                       : 4:2:0
Bit depth                                : 8 bits
Scan type                                : Progressive
Bits/(Pixel*Frame)                       : 0.207
Stream size                              : 1.81 GiB (85%)
Source stream size                       : 1.81 GiB (85%)
Title                                    : Main Program
Writing library                          : x264 core 155 r2901 7d0ff22
Encoding settings                        : cabac=1 / ref=9 / deblock=1:0:0 / analyse=0x3:0x113 / me=umh / subme=9 / psy=1 / psy_rd=1.00:0.00 / mixed_ref=1 / me_range=32 / chroma_me=1 / trellis=1 / 8x8dct=1 / cqm=0 / deadzone=21,11 / fast_pskip=1 / chroma_qp_offset=-2 / threads=13 / lookahead_threads=1 / sliced_threads=0 / nr=0 / decimate=1 / interlaced=0 / bluray_compat=0 / constrained_intra=0 / bframes=6 / b_pyramid=2 / b_adapt=2 / b_bias=0 / direct=1 / weightb=1 / open_gop=0 / weightp=2 / keyint=240 / keyint_min=24 / scenecut=40 / intra_refresh=0 / rc_lookahead=40 / rc=2pass / mbtree=1 / bitrate=2200 / ratetol=1.0 / qcomp=0.60 / qpmin=0 / qpmax=69 / qpstep=4 / cplxblur=20.0 / qblur=0.5 / ip_ratio=1.40 / aq=1:1.00
Language                                 : English
Encoded date                             : UTC 2018-10-08 08:26:58
Tagged date                              : UTC 2018-10-08 08:27:08
Color range                              : Limited
Color primaries                          : BT.709
Transfer characteristics                 : BT.709
Matrix coefficients                      : BT.709
Menus                                    : 9,10
Codec configuration box                  : avcC
Video #2
ID                                       : 10
Format                                   : JPEG
Codec ID                                 : jpeg
Duration                                 : 1h 58mn
Bit rate mode                            : Variable
Bit rate                                 : 774 bps
Width                                    : 640 pixels
Height                                   : 270 pixels
Display aspect ratio                     : 2.40:1
Frame rate mode                          : Variable
Frame rate                               : 0.003 fps
Minimum frame rate                       : 0.002 fps
Maximum frame rate                       : 0.005 fps
Color space                              : YUV
Chroma subsampling                       : 4:2:0
Bit depth                                : 8 bits
Compression mode                         : Lossy
Bits/(Pixel*Frame)                       : 1.493
Stream size                              : 567 KiB (0%)
Title                                    : Chapter Images
Language                                 : English
Default                                  : No
Encoded date                             : UTC 2018-10-08 08:27:18
Tagged date                              : UTC 2018-10-08 08:27:18
Menu For                                 : 1
ColorSpace_ICC                           : RGB
Audio #1
ID                                       : 2
Format                                   : AAC LC
Format/Info                              : Advanced Audio Codec Low Complexity
Codec ID                                 : mp4a-40-2
Duration                                 : 1h 58mn
Source duration                          : 1h 58mn
Bit rate mode                            : Variable
Bit rate                                 : 125 Kbps
Maximum bit rate                         : 190 Kbps
Channel(s)                               : 2 channels
Channel layout                           : L R
Sampling rate                            : 48.0 KHz
Frame rate                               : 46.875 fps (1024 SPF)
Compression mode                         : Lossy
Stream size                              : 106 MiB (5%)
Source stream size                       : 106 MiB (5%)
Title                                    : Russian Stereo
Language                                 : Russian
Default                                  : Yes
Alternate group                          : 1
Encoded date                             : UTC 2018-10-08 08:26:58
Tagged date                              : UTC 2018-10-08 08:27:14
Subtitles                                : 5,6,7
Audio #2
ID                                       : 3
Format                                   : AAC LC
Format/Info                              : Advanced Audio Codec Low Complexity
Codec ID                                 : mp4a-40-2
Duration                                 : 1h 58mn
Source duration                          : 1h 58mn
Bit rate mode                            : Variable
Bit rate                                 : 126 Kbps
Maximum bit rate                         : 208 Kbps
Channel(s)                               : 2 channels
Channel layout                           : L R
Sampling rate                            : 48.0 KHz
Frame rate                               : 46.875 fps (1024 SPF)
Compression mode                         : Lossy
Stream size                              : 106 MiB (5%)
Source stream size                       : 106 MiB (5%)
Title                                    : English Stereo
Language                                 : English
Default                                  : No
Alternate group                          : 1
Encoded date                             : UTC 2018-10-08 08:26:58
Tagged date                              : UTC 2018-10-08 08:27:14
Audio #3
ID                                       : 4
Format                                   : AAC LC
Format/Info                              : Advanced Audio Codec Low Complexity
Codec ID                                 : mp4a-40-2
Duration                                 : 1h 58mn
Source duration                          : 1h 58mn
Bit rate mode                            : Variable
Bit rate                                 : 120 Kbps
Maximum bit rate                         : 190 Kbps
Channel(s)                               : 2 channels
Channel layout                           : L R
Sampling rate                            : 48.0 KHz
Frame rate                               : 46.875 fps (1024 SPF)
Compression mode                         : Lossy
Stream size                              : 102 MiB (5%)
Source stream size                       : 102 MiB (5%)
Title                                    : TYFLO COMMENTARY Russian
Language                                 : Russian
Default                                  : No
Alternate group                          : 1
Encoded date                             : UTC 2018-10-08 08:26:59
Tagged date                              : UTC 2018-10-08 08:27:14
Text #1
ID                                       : 5
Format                                   : Timed Text
Muxing mode                              : sbtl
Codec ID                                 : tx3g
Duration                                 : 1h 57mn
Bit rate mode                            : Variable
Bit rate                                 : 0 bps
Stream size                              : 291 Bytes (0%)
Title                                    : Russian forced
Language                                 : Russian
Default                                  : Yes
Forced                                   : Yes
Alternate group                          : 2
Encoded date                             : UTC 2018-10-08 08:26:59
Tagged date                              : UTC 2018-10-08 08:27:02
Subtitles For                            : 2
Full Alternative                         : 6,7
Text #2
ID                                       : 6
Format                                   : Timed Text
Muxing mode                              : sbtl
Codec ID                                 : tx3g
Duration                                 : 1h 57mn
Bit rate mode                            : Variable
Bit rate                                 : 116 bps
Stream size                              : 100 KiB (0%)
Title                                    : Russian full
Language                                 : Russian
Default                                  : No
Forced                                   : No
Alternate group                          : 2
Encoded date                             : UTC 2018-10-08 08:26:59
Tagged date                              : UTC 2018-10-08 08:27:02
Subtitles For                            : 2
Forced Alternative                       : 5
Text #3
ID                                       : 7
Format                                   : Timed Text
Muxing mode                              : sbtl
Codec ID                                 : tx3g
Duration                                 : 1h 57mn
Bit rate mode                            : Variable
Bit rate                                 : 0 bps
Stream size                              : 291 Bytes (0%)
Title                                    : Russian SDH
Language                                 : Russian
Default                                  : No
Forced                                   : No
Alternate group                          : 2
Encoded date                             : UTC 2018-10-08 08:26:59
Tagged date                              : UTC 2018-10-08 08:27:02
Subtitles For                            : 2
Forced Alternative                       : 5
Text #4
ID                                       : 8
Format                                   : Timed Text
Muxing mode                              : sbtl
Codec ID                                 : tx3g
Duration                                 : 1h 51mn
Bit rate mode                            : Variable
Bit rate                                 : 85 bps
Stream size                              : 69.2 KiB (0%)
Title                                    : English full
Language                                 : English
Default                                  : No
Forced                                   : No
Alternate group                          : 2
Encoded date                             : UTC 2018-10-08 08:26:59
Tagged date                              : UTC 2018-10-08 08:27:02
Menu #1
00:00:00.000                             : 00:00:00.000
00:04:03.034                             : 00:04:03.034
00:10:16.407                             : 00:10:16.407
00:13:39.861                             : 00:13:39.861
00:21:25.451                             : 00:21:25.451
00:29:07.829                             : 00:29:07.829
00:36:09.084                             : 00:36:09.084
00:40:56.579                             : 00:40:56.579
00:50:17.431                             : 00:50:17.431
00:58:59.077                             : 00:58:59.077
01:04:56.434                             : 01:04:56.434
01:12:54.287                             : 01:12:54.287
01:18:32.124                             : 01:18:32.124
01:24:44.913                             : 01:24:44.913
01:29:47.340                             : 01:29:47.340
01:36:16.271                             : 01:36:16.270
01:43:35.334                             : 01:43:35.334
01:46:59.830                             : 01:46:59.830
Menu #2
ID                                       : 9
Codec ID                                 : text
Duration                                 : 1h 58mn
Language                                 : English
Encoded date                             : UTC 2018-10-08 08:27:14
Tagged date                              : UTC 2018-10-08 08:27:14
Bit rate mode                            : CBR
Menu For                                 : 1
00:00:00.000                             : 00:00:00.000
00:04:03.034                             : 00:04:03.034
00:10:16.407                             : 00:10:16.407
00:13:39.861                             : 00:13:39.861
00:21:25.451                             : 00:21:25.451
00:29:07.829                             : 00:29:07.829
00:36:09.084                             : 00:36:09.084
00:40:56.579                             : 00:40:56.579
00:50:17.431                             : 00:50:17.431
00:58:59.077                             : 00:58:59.077
01:04:56.434                             : 01:04:56.434
01:12:54.287                             : 01:12:54.287
01:18:32.124                             : 01:18:32.124
01:24:44.913                             : 01:24:44.913
01:29:47.340                             : 01:29:47.340
01:36:16.271                             : 01:36:16.270
01:43:35.334                             : 01:43:35.334
01:46:59.830                             : 01:46:59.830

x264 лог

x264 [info]: frame I:2306  Avg QP:10.94  size: 73551
x264 [info]: frame P:43476 Avg QP:14.16  size: 22721
x264 [info]: frame B:124125 Avg QP:16.12  size:  6374
x264 [info]: consecutive B-frames:  4.5%  5.0% 14.0% 24.6% 19.4% 24.5%  8.0%
x264 [info]: mb I  I16..4:  8.4% 68.3% 23.3%
x264 [info]: mb P  I16..4:  1.9% 11.4%  3.2%  P16..4: 33.2% 24.8% 15.9%  0.0%  0.0%    skip: 9.6%
x264 [info]: mb B  I16..4:  0.2%  1.4%  0.5%  B16..8: 35.7% 11.4%  3.1%  direct: 4.0%  skip:43.7%  L0:42.6% L1:43.1% BI:14.3%
x264 [info]: 8x8 transform intra:68.8% inter:70.3%
x264 [info]: coded y,uvDC,uvAC intra: 87.6% 81.2% 61.9% inter: 25.7% 17.8% 4.0%
x264 [info]: i16 v,h,dc,p: 20% 14%  5% 60%
x264 [info]: i8 v,h,dc,ddl,ddr,vr,hd,vl,hu: 13% 11%  5%  9% 12% 12% 13% 11% 14%
x264 [info]: i4 v,h,dc,ddl,ddr,vr,hd,vl,hu: 10% 10%  3%  9% 15% 14% 14% 11% 13%
x264 [info]: i8c dc,h,v,p: 39% 27% 19% 15%
x264 [info]: Weighted P-Frames: Y:3.9% UV:1.8%
x264 [info]: ref P L0: 57.4%  9.5% 13.5%  6.0%  4.1%  3.4%  2.5%  1.7%  1.7%  0.2%  0.0%
x264 [info]: ref B L0: 77.5% 10.7%  5.3%  2.4%  1.7%  1.3%  0.8%  0.3%
x264 [info]: ref B L1: 94.9%  5.1%
x264 [info]: kb/s:2199.81

Скриншоты

-

Релиз подготовлен для просмотра на Apple TV, iPad, iPhone, iPod Touch.
Для просмотра данного релиза на компьютере с ОС Windows рекомендуется использовать VLC media player
Вы не можете начинать темы
Вы не можете отвечать на сообщения
Вы не можете редактировать свои сообщения
Вы не можете удалять свои сообщения
Вы не можете голосовать в опросах
Вы не можете прикреплять файлы к сообщениям
Вы можете скачивать файлы
!ВНИМАНИЕ!

Сайт не предоставляет электронные версии произведений, а занимается лишь коллекционированием и каталогизацией ссылок, присылаемых и публикуемых на форуме нашими читателями. Если вы являетесь правообладателем какого-либо представленного материала и не желаете, чтобы ссылка на него находилась в нашем каталоге, свяжитесь с нами, и мы незамедлительно удалим ее. Файлы для обмена на трекере предоставлены пользователями сайта, и администрация не несет ответственности за их содержание. Просьба не заливать файлы, защищенные авторскими правами, а также файлы нелегального содержания!

Искали программы, игры, дополнения, музыка mp3, аниме, аудио книги, журналы? Добро пожаловать на свободный торрент трекер Torrents, у нас можно скачать бесплатно, без смс и регистрации и прочих ограничений лучшие, отборные сборки программ, игр. Скачать торрентом не составит труда даже не опытному пользователю. Раздачи ежедневно обновляются, только лучшие и качественные раздачи, подробные описания и скриншоты. Огромная коллекция программ для работы со звуком, графикой, дизайном, а так же множество плагинов и инструментов к ним с подробной инструкцией и рекомендациями. Прошивки для навигаторов, карты. Разнообразные игры, для Windows, Linux. В коллекцие есть и старые игры любых жанров, Rpg, Action, Shooter, strategy Множество дополнений, модификаций, сценариев для популярных игр в жанре экш, рпг, гонки, стратегии, логические игры. Множество аддонов и сценариев для Microsoft Flight Simulator Большая коллекция книг, учебников. Если нет возможности купить печатное издание - смело скачивайте цифровую версию книги или, быть может, журнала. Не любите читать - можно загрузить бесплатно аудикнигу. Для веб дизайнеров и программистов так же найдется множество специализированного софта, таких как: редакторы с подсветкой, среды программирования, компоненты, системы управления базами данных, разнообразные скрипты и шаблоны. Не так давно у нас появился материал для автолюбителей и владельцев мото - оригинальные и неоригинальные каталоги запчастей, книги и журналы по ремонту и обслуживанию, видеоуроки, статьи по чип тюнингу, прошивкам. Процедура получения контента элементарная, достаточно просто скачать торрент файл и добавить его в загрузку в вашем торрент клиенте. Если у вас нет специального торрент клиента, вы можете его скачать у нас.