[iPad] НЛО / UFO (Райан Эслинджер / Ryan Eslinger ) [2018, США, Фантастика, боевик, триллер, WEB-DLRip, SD (576p)] MVO + Original + sub (rus, ukr, eng) 

Цитировать
НЛО / UFO
-
5.859 / 10 6.10 / 10
- Год выпуска: 2018
Страна: США
Жанр: Фантастика, боевик, триллер
Продолжительность: 01:28:26
Перевод: Многоголосый закадровый (iTunes)
Оригинальная аудиодорожка: Есть
Cубтитры: Русские, Украинские, Английские
Режиссёр: Райан Эслинджер
Сценарий: Райан Эслинджер
Продюсер: Ивэн Хэйес, Том Райс, Siegfried Harris
Оператор: Райан Самул
Композитор: Уэст Дилан Тордсон
Художник: Дженнифер Клайд, Патрик Джексон
Монтаж: Брендан Уолш
В ролях: Алекс Шарп, Элла Пернелл, Бенжамин Битти, Джиллиан Андерсон, Дэвид Стрэтэйрн, Cece Abbey, Дилан Кит Адамс, Jennifer Alexis, Марк Энджел, Кэтлин Эшкрафт
Мировая премьера: 4 сентября 2018
Описание: История одарённого студента, с детства увлечённого идеей о встрече с инопланетянами и поисками НЛО. Героя интересуют слухи о присутствии НЛО в нескольких аэропортах, сам же он привлекает внимание спецслужб.-Качество исходника: WEB-DL 1080p (NNMClub)
Качество: WEB-DLRip
Тип: SD (576p)
Контейнер: M4V
Видео: H.264, 1024x432, 2.40:1, 2 200 Kbps, 23.976 (24000/1001) fps
Аудио 1: Русский/Многоголосый закадровый (iTunes), AAC LC / 2.0 / 128 Kbps / 48.0 KHz
Аудио 2: Английский/Оригинальная дорожка , AAC LC / 2.0 / 128 Kbps / 48.0 KHz
Субтитры 1: Русские полные
Субтитры 2: Украинские полные
Субтитры 3: Английские полные
-

iTunes Meta Tags

Sort Name: UFO
XID: Apple:vendor_id:2018-1021576
contentID: 1423172350
Copyright: © 2018 Cincy Dawn , LLC. All Rights Reserved.
Screenwriters: Райан Эслинджер
Producers: Ивэн Хэйес, Том Райс, Siegfried Harris
Director: Райан Эслинджер
Cast: Алекс Шарп, Элла Пернелл, Бенжамин Битти, Джиллиан Андерсон, Дэвид Стрэтэйрн, Cece Abbey, Дилан Кит Адамс, Jennifer Alexis, Марк Энджел, Кэтлин Эшкрафт
Studio: Story Mining & Supply Co.
Rating Annotation: Rated PG-13 for some drug material and language.
Rating: 4
Long Description: История одарённого студента, с детства увлечённого идеей о встрече с инопланетянами и поисками НЛО. Героя интересуют слухи о присутствии НЛО в нескольких аэропортах, сам же он привлекает внимание спецслужб.
Description: История одарённого студента, с детства увлечённого идеей о встрече с инопланетянами и поисками НЛО. Героя интересуют слухи о присутствии НЛО в нескольких аэропортах, сам же он привлекает внимание спецслужб.
Release Date: 2018-09-04T08:00:00Z
Genre: Drama
Artist: Ryan Eslinger
Name: UFO

MediaInfo

General
Complete name                            : /Users/imac/HandBrake/UFO.(SD).(pk).m4v
Format                                   : MPEG-4
Codec ID                                 : M4V  (M4V /M4A /mp42/isom)
File size                                : 1.52 GiB
Duration                                 : 1h 28mn
Overall bit rate mode                    : Variable
Overall bit rate                         : 2 458 Kbps
Movie name                               : UFO
Performer                                : Ryan Eslinger
Director                                 : Райан Эслинджер
Actor                                    : Алекс Шарп / Элла Пернелл / Бенжамин Битти / Джиллиан Андерсон / Дэвид Стрэтэйрн / Cece Abbey / Дилан Кит Адамс / Jennifer Alexis / Марк Энджел / Кэтлин Эшкрафт
Screenplay by                            : Райан Эслинджер
Producer                                 : Ивэн Хэйес / Том Райс / Siegfried Harris
Production studio                        : Story Mining & Supply Co.
Genre                                    : Drama
ContentType                              : Short Film
Description                              : История одарённого студента, с детства увлечённого идеей о встрече с инопланетянами и поисками НЛО. Героя интересуют слухи о присутствии НЛО в нескольких аэропортах, сам же он привлекает внимание спецслужб.
Recorded date                            : UTC 2018-09-04 08:00:00
Encoded date                             : UTC 2018-09-19 10:31:11
Tagged date                              : UTC 2018-09-19 10:32:06
Copyright                                : © 2018 Cincy Dawn , LLC. All Rights Reserved.
Cover                                    : Yes
Rating                                   : None
Title/Sort                               : UFO
LongDescription                          : История одарённого студента, с детства увлечённого идеей о встрече с инопланетянами и поисками НЛО. Героя интересуют слухи о присутствии НЛО в нескольких аэропортах, сам же он привлекает внимание спецслужб.
AppleStoreCatalogID                      : 1423172350
Vendor                                   : Apple:vendor_id:2018-1021576
ContentRating                            : mpaa|PG-13|300|Rated PG-13 for some drug material and language.
Video #1
ID                                       : 1
Format                                   : AVC
Format/Info                              : Advanced Video Codec
Format profile                           : High@L3.1
Format settings                          : CABAC / 9 Ref Frames
Format settings, CABAC                   : Yes
Format settings, ReFrames                : 9 frames
Codec ID                                 : avc1
Codec ID/Info                            : Advanced Video Coding
Duration                                 : 1h 28mn
Source duration                          : 1h 28mn
Bit rate                                 : 2 200 Kbps
Width                                    : 1 024 pixels
Height                                   : 432 pixels
Display aspect ratio                     : 2.40:1
Frame rate mode                          : Variable
Frame rate                               : 23.976 (24000/1001) fps
Minimum frame rate                       : 23.974 fps
Maximum frame rate                       : 23.981 fps
Color space                              : YUV
Chroma subsampling                       : 4:2:0
Bit depth                                : 8 bits
Scan type                                : Progressive
Bits/(Pixel*Frame)                       : 0.207
Stream size                              : 1.36 GiB (89%)
Source stream size                       : 1.36 GiB (89%)
Title                                    : Main Program
Writing library                          : x264 core 155 r2901 7d0ff22
Encoding settings                        : cabac=1 / ref=9 / deblock=1:0:0 / analyse=0x3:0x113 / me=umh / subme=9 / psy=1 / psy_rd=1.00:0.00 / mixed_ref=1 / me_range=32 / chroma_me=1 / trellis=1 / 8x8dct=1 / cqm=0 / deadzone=21,11 / fast_pskip=1 / chroma_qp_offset=-2 / threads=13 / lookahead_threads=1 / sliced_threads=0 / nr=0 / decimate=1 / interlaced=0 / bluray_compat=0 / constrained_intra=0 / bframes=6 / b_pyramid=2 / b_adapt=2 / b_bias=0 / direct=1 / weightb=1 / open_gop=0 / weightp=2 / keyint=240 / keyint_min=24 / scenecut=40 / intra_refresh=0 / rc_lookahead=40 / rc=2pass / mbtree=1 / bitrate=2200 / ratetol=1.0 / qcomp=0.60 / qpmin=0 / qpmax=69 / qpstep=4 / cplxblur=20.0 / qblur=0.5 / ip_ratio=1.40 / aq=1:1.00
Language                                 : English
Encoded date                             : UTC 2018-09-19 10:31:11
Tagged date                              : UTC 2018-09-19 10:31:16
Color range                              : Limited
Color primaries                          : BT.709
Transfer characteristics                 : BT.709
Matrix coefficients                      : BT.709
Menus                                    : 7,8
Codec configuration box                  : avcC
Video #2
ID                                       : 8
Format                                   : JPEG
Codec ID                                 : jpeg
Duration                                 : 1h 28mn
Bit rate mode                            : Variable
Bit rate                                 : 769 bps
Width                                    : 640 pixels
Height                                   : 270 pixels
Display aspect ratio                     : 2.40:1
Frame rate mode                          : Variable
Frame rate                               : 0.003 fps
Minimum frame rate                       : 0.002 fps
Maximum frame rate                       : 0.010 fps
Color space                              : YUV
Chroma subsampling                       : 4:2:0
Bit depth                                : 8 bits
Compression mode                         : Lossy
Bits/(Pixel*Frame)                       : 1.483
Stream size                              : 501 KiB (0%)
Title                                    : Chapter Images
Language                                 : English
Default                                  : No
Encoded date                             : UTC 2018-09-19 10:31:22
Tagged date                              : UTC 2018-09-19 10:31:23
Menu For                                 : 1
ColorSpace_ICC                           : RGB
Audio #1
ID                                       : 2
Format                                   : AAC LC
Format/Info                              : Advanced Audio Codec Low Complexity
Codec ID                                 : mp4a-40-2
Duration                                 : 1h 28mn
Source duration                          : 1h 28mn
Bit rate mode                            : Variable
Bit rate                                 : 125 Kbps
Maximum bit rate                         : 208 Kbps
Channel(s)                               : 2 channels
Channel layout                           : L R
Sampling rate                            : 48.0 KHz
Frame rate                               : 46.875 fps (1024 SPF)
Compression mode                         : Lossy
Stream size                              : 79.2 MiB (5%)
Source stream size                       : 79.2 MiB (5%)
Title                                    : Russian Stereo
Language                                 : Russian
Default                                  : Yes
Alternate group                          : 1
Encoded date                             : UTC 2018-09-19 10:31:11
Tagged date                              : UTC 2018-09-19 10:31:18
Audio #2
ID                                       : 3
Format                                   : AAC LC
Format/Info                              : Advanced Audio Codec Low Complexity
Codec ID                                 : mp4a-40-2
Duration                                 : 1h 28mn
Source duration                          : 1h 28mn
Bit rate mode                            : Variable
Bit rate                                 : 125 Kbps
Maximum bit rate                         : 214 Kbps
Channel(s)                               : 2 channels
Channel layout                           : L R
Sampling rate                            : 48.0 KHz
Frame rate                               : 46.875 fps (1024 SPF)
Compression mode                         : Lossy
Stream size                              : 79.0 MiB (5%)
Source stream size                       : 79.0 MiB (5%)
Title                                    : English Stereo
Language                                 : English
Default                                  : No
Alternate group                          : 1
Encoded date                             : UTC 2018-09-19 10:31:11
Tagged date                              : UTC 2018-09-19 10:31:18
Text #1
ID                                       : 4
Format                                   : Timed Text
Muxing mode                              : sbtl
Codec ID                                 : tx3g
Duration                                 : 1h 28mn
Bit rate mode                            : Variable
Bit rate                                 : 99 bps
Stream size                              : 64.0 KiB (0%)
Title                                    : Russian full
Language                                 : Russian
Default                                  : Yes
Forced                                   : No
Alternate group                          : 2
Encoded date                             : UTC 2018-09-19 10:31:12
Tagged date                              : UTC 2018-09-19 10:31:12
Text #2
ID                                       : 5
Format                                   : Timed Text
Muxing mode                              : sbtl
Codec ID                                 : tx3g
Duration                                 : 1h 28mn
Bit rate mode                            : Variable
Bit rate                                 : 101 bps
Stream size                              : 65.3 KiB (0%)
Title                                    : Ukrainian full
Language                                 : Ukrainian
Default                                  : No
Forced                                   : No
Alternate group                          : 2
Encoded date                             : UTC 2018-09-19 10:31:12
Tagged date                              : UTC 2018-09-19 10:31:12
Text #3
ID                                       : 6
Format                                   : Timed Text
Muxing mode                              : sbtl
Codec ID                                 : tx3g
Duration                                 : 1h 22mn
Bit rate mode                            : Variable
Bit rate                                 : 76 bps
Stream size                              : 46.2 KiB (0%)
Title                                    : English full
Language                                 : English
Default                                  : No
Forced                                   : No
Alternate group                          : 2
Encoded date                             : UTC 2018-09-19 10:31:12
Tagged date                              : UTC 2018-09-19 10:31:12
Menu #1
00:00:00.000                             : 1
00:03:54.484                             : 2
00:08:24.504                             : 3
00:11:45.496                             : 4
00:17:35.429                             : 5
00:23:10.013                             : 6
00:31:04.570                             : 7
00:35:20.325                             : 8
00:40:28.800                             : 9
00:42:07.148                             : 10
00:44:50.019                             : 11
00:51:54.151                             : 12
00:59:45.997                             : 13
01:08:48.164                             : 14
01:14:23.082                             : 15
01:18:33.415                             : 16
Menu #2
ID                                       : 7
Codec ID                                 : text
Duration                                 : 1h 28mn
Language                                 : English
Encoded date                             : UTC 2018-09-19 10:31:18
Tagged date                              : UTC 2018-09-19 10:31:18
Menu For                                 : 1
00:00:00.000                             : 1
00:03:54.484                             : 2
00:08:24.504                             : 3
00:11:45.496                             : 4
00:17:35.429                             : 5
00:23:10.013                             : 6
00:31:04.570                             : 7
00:35:20.325                             : 8
00:40:28.800                             : 9
00:42:07.148                             : 10
00:44:50.019                             : 11
00:51:54.151                             : 12
00:59:45.997                             : 13
01:08:48.164                             : 14
01:14:23.082                             : 15
01:18:33.415                             : 16
Bit rate mode                            : VBR

x264 лог

x264 [info]: frame I:984   Avg QP: 9.99  size: 81561
x264 [info]: frame P:29783 Avg QP:12.31  size: 24098
x264 [info]: frame B:96448 Avg QP:14.94  size:  6845
x264 [info]: consecutive B-frames:  1.5%  2.9%  3.2% 54.1% 10.2% 25.5%  2.7%
x264 [info]: mb I  I16..4: 11.8% 66.5% 21.6%
x264 [info]: mb P  I16..4:  0.9%  5.9%  1.2%  P16..4: 28.7% 30.1% 22.7%  0.0%  0.0%    skip:10.5%
x264 [info]: mb B  I16..4:  0.1%  0.6%  0.1%  B16..8: 28.8% 13.7%  5.0%  direct: 6.2%  skip:45.5%  L0:44.7% L1:40.7% BI:14.6%
x264 [info]: 8x8 transform intra:72.9% inter:56.5%
x264 [info]: coded y,uvDC,uvAC intra: 89.6% 87.2% 76.0% inter: 29.5% 23.3% 7.3%
x264 [info]: i16 v,h,dc,p: 46% 13%  8% 33%
x264 [info]: i8 v,h,dc,ddl,ddr,vr,hd,vl,hu: 13% 11% 11%  9% 11% 11% 11% 11% 13%
x264 [info]: i4 v,h,dc,ddl,ddr,vr,hd,vl,hu: 12% 12%  4%  9% 14% 13% 12% 11% 12%
x264 [info]: i8c dc,h,v,p: 52% 21% 16% 10%
x264 [info]: Weighted P-Frames: Y:2.7% UV:1.2%
x264 [info]: ref P L0: 49.4%  6.3% 18.4%  7.2%  6.1%  4.3%  4.0%  2.1%  2.1%  0.0%  0.0%
x264 [info]: ref B L0: 68.7% 13.5%  6.9%  3.7%  2.7%  2.3%  1.6%  0.5%
x264 [info]: ref B L1: 94.4%  5.6%
x264 [info]: kb/s:2198.51

Скриншоты

-

Релиз подготовлен для просмотра на Apple TV, iPad, iPhone, iPod Touch.
Для просмотра данного релиза на компьютере с ОС Windows рекомендуется использовать VLC media player
Вы не можете начинать темы
Вы не можете отвечать на сообщения
Вы не можете редактировать свои сообщения
Вы не можете удалять свои сообщения
Вы не можете голосовать в опросах
Вы не можете прикреплять файлы к сообщениям
Вы можете скачивать файлы
!ВНИМАНИЕ!

Сайт не предоставляет электронные версии произведений, а занимается лишь коллекционированием и каталогизацией ссылок, присылаемых и публикуемых на форуме нашими читателями. Если вы являетесь правообладателем какого-либо представленного материала и не желаете, чтобы ссылка на него находилась в нашем каталоге, свяжитесь с нами, и мы незамедлительно удалим ее. Файлы для обмена на трекере предоставлены пользователями сайта, и администрация не несет ответственности за их содержание. Просьба не заливать файлы, защищенные авторскими правами, а также файлы нелегального содержания!

Искали программы, игры, дополнения, музыка mp3, аниме, аудио книги, журналы? Добро пожаловать на свободный торрент трекер Torrents, у нас можно скачать бесплатно, без смс и регистрации и прочих ограничений лучшие, отборные сборки программ, игр. Скачать торрентом не составит труда даже не опытному пользователю. Раздачи ежедневно обновляются, только лучшие и качественные раздачи, подробные описания и скриншоты. Огромная коллекция программ для работы со звуком, графикой, дизайном, а так же множество плагинов и инструментов к ним с подробной инструкцией и рекомендациями. Прошивки для навигаторов, карты. Разнообразные игры, для Windows, Linux. В коллекцие есть и старые игры любых жанров, Rpg, Action, Shooter, strategy Множество дополнений, модификаций, сценариев для популярных игр в жанре экш, рпг, гонки, стратегии, логические игры. Множество аддонов и сценариев для Microsoft Flight Simulator Большая коллекция книг, учебников. Если нет возможности купить печатное издание - смело скачивайте цифровую версию книги или, быть может, журнала. Не любите читать - можно загрузить бесплатно аудикнигу. Для веб дизайнеров и программистов так же найдется множество специализированного софта, таких как: редакторы с подсветкой, среды программирования, компоненты, системы управления базами данных, разнообразные скрипты и шаблоны. Не так давно у нас появился материал для автолюбителей и владельцев мото - оригинальные и неоригинальные каталоги запчастей, книги и журналы по ремонту и обслуживанию, видеоуроки, статьи по чип тюнингу, прошивкам. Процедура получения контента элементарная, достаточно просто скачать торрент файл и добавить его в загрузку в вашем торрент клиенте. Если у вас нет специального торрент клиента, вы можете его скачать у нас.