[iPad] Зои / Zoe (Дрейк Доримус / Drake Doremus ) [2018, США, Фантастика, мелодрама, WEB-DLRip, SD (576p)] DUB + Original + sub (eng) 

Цитировать
Зои / Zoe
«В будущем нет одиночества»
6.283 / 10 6.10 / 10
- Год выпуска: 2018
Страна: США
Жанр: Фантастика, мелодрама
Продолжительность: 01:43:43
Перевод: Дублированный (iTunes)
Оригинальная аудиодорожка: Есть
Cубтитры: Английские
Режиссёр: Дрейк Доримус
Сценарий: Ричард Гринберг, Дрейк Доримус
Продюсер: Дрейк Доримус, Роберт Джордж, Майкл А. Прусс
Оператор: Джон Галесериан
Композитор: Дэн Ромер
Художник: Кэти Байрон, Николас Лепаж, Алана Морсхэд
Монтаж: Дуглас Крайс
В ролях: Юэн МакГрегор, Леа Сейду, Тео Джеймс, Рашида Джонс, Кристина Агилера, Миранда Отто, Энтони Шим, Donovan Colan, Мэттью Грей Гублер, Ричард Бримблкомб
Сборы в России: $278 184
Мировая премьера: 21 апреля 2018
Премьера (РФ): 19 июля 2018, «MEGOGO Distribution»
Цифровой релиз: 20 августа 2018, «Megogo Distribution»
Описание: Зои и Коул — ученые будущего, которые разрабатывают идеальных романтических партнеров — синтетиков. Их цель — избавить людей от одиночества и неразделенной любви. Но чем дальше они продвигаются в своих экспериментах, тем сомнительнее выглядят результаты их работы…-Качество исходника: WEB-DL 1080p (NNMClub)
Качество: WEB-DLRip
Тип: SD (576p)
Контейнер: M4V
Видео: H.264, 1024x432, 2.40:1, 2 200 Kbps, 23.976 fps
Аудио 1: Русский/Дублированный (iTunes), AAC / 2.0 / 128 Kbps / 48.0 KHz
Аудио 2: Английский/Оригинальная дорожка , AAC / 2.0 / 128 Kbps / 48.0 KHz
Субтитры: Английские полные
-

iTunes Meta Tags

Sort Name: Зои
XID: Apple:vendor_id:2018-1002560
contentID: 1421826209
Screenwriters: Ричард Гринберг, Дрейк Доримус
Producers: Дрейк Доримус, Роберт Джордж, Майкл А. Прусс
Director: Дрейк Доримус
Cast: Юэн МакГрегор, Леа Сейду, Тео Джеймс, Рашида Джонс, Кристина Агилера, Миранда Отто, Энтони Шим, Donovan Colan, Мэттью Грей Гублер, Ричард Бримблкомб
Studio: IM Global, Scott Free Productions
Rating: 136
Long Description: Зои и Коул — ученые будущего, которые разрабатывают идеальных романтических партнеров — синтетиков. Их цель — избавить людей от одиночества и неразделенной любви. Но чем дальше они продвигаются в своих экспериментах, тем сомнительнее выглядят результаты их работы…
Description: Зои и Коул — ученые будущего, которые разрабатывают идеальных романтических партнеров — синтетиков. Их цель — избавить людей от одиночества и неразделенной любви. Но чем дальше они продвигаются в своих экспериментах, тем сомнительнее выглядят результаты их работы…
Release Date: 2018-08-20T07:00:00Z
Genre: Триллеры
Artist: Drake Doremus
Name: Зои

MediaInfo

General
Complete name : /Users/imac/HandBrake/Zoe.(SD).(pk).m4v
Format : MPEG-4
Codec ID : M4V
File size : 1.78 GiB
Duration : 1h 43mn
Overall bit rate mode : Variable
Overall bit rate : 2 459 Kbps
Movie name : Зои
Performer : Drake Doremus
Director : Дрейк Доримус
Actor : Юэн МакГрегор / Леа Сейду / Тео Джеймс / Рашида Джонс / Кристина Агилера / Миранда Отто / Энтони Шим / Donovan Colan / Мэттью Грей Гублер / Ричард Бримблкомб
Screenplay by : Ричард Гринберг / Дрейк Доримус
Producer : Дрейк Доримус / Роберт Джордж / Майкл А. Прусс
Production studio : IM Global, Scott Free Productions
Genre : Триллеры
ContentType : Short Film
Description : Зои и Коул — ученые будущего, которые разрабатывают идеальных романтических партнеров — синтетиков. Их цель — избавить людей от одиночества и неразделенной любви. Но чем дальше они продвигаются в своих экспериментах, тем сомнительнее выглядят результаты их работы…
Recorded date : UTC 2018-08-20 07:00:00
Encoded date : UTC 2018-09-23 13:29:20
Tagged date : UTC 2018-09-23 13:30:17
Cover : Yes
Rating : None
Title/Sort : Зои
LongDescription : Зои и Коул — ученые будущего, которые разрабатывают идеальных романтических партнеров — синтетиков. Их цель — избавить людей от одиночества и неразделенной любви. Но чем дальше они продвигаются в своих экспериментах, тем сомнительнее выглядят результаты их работы…
AppleStoreCatalogID : 1421826209
Vendor : Apple:vendor_id:2018-1002560
ContentRating : ru-movie|18+|400|
Video #1
ID : 1
Format : AVC
Format/Info : Advanced Video Codec
Format profile : High@L3.1
Format settings, CABAC : Yes
Format settings, ReFrames : 9 frames
Codec ID : avc1
Codec ID/Info : Advanced Video Coding
Duration : 1h 43mn
Source duration : 1h 43mn
Bit rate : 2 200 Kbps
Width : 1 024 pixels
Height : 432 pixels
Display aspect ratio : 2.40:1
Frame rate mode : Variable
Frame rate : 23.976 fps
Minimum frame rate : 23.974 fps
Maximum frame rate : 23.981 fps
Color space : YUV
Chroma subsampling : 4:2:0
Bit depth : 8 bits
Scan type : Progressive
Bits/(Pixel*Frame) : 0.207
Stream size : 1.59 GiB (89%)
Source stream size : 1.59 GiB (89%)
Title : Main Program
Writing library : x264 core 155 r2901 7d0ff22
Encoding settings : cabac=1 / ref=9 / deblock=1:0:0 / analyse=0x3:0x113 / me=umh / subme=9 / psy=1 / psy_rd=1.00:0.00 / mixed_ref=1 / me_range=32 / chroma_me=1 / trellis=1 / 8x8dct=1 / cqm=0 / deadzone=21,11 / fast_pskip=1 / chroma_qp_offset=-2 / threads=13 / lookahead_threads=1 / sliced_threads=0 / nr=0 / decimate=1 / interlaced=0 / bluray_compat=0 / constrained_intra=0 / bframes=6 / b_pyramid=2 / b_adapt=2 / b_bias=0 / direct=1 / weightb=1 / open_gop=0 / weightp=2 / keyint=240 / keyint_min=24 / scenecut=40 / intra_refresh=0 / rc_lookahead=40 / rc=2pass / mbtree=1 / bitrate=2200 / ratetol=1.0 / qcomp=0.60 / qpmin=0 / qpmax=69 / qpstep=4 / cplxblur=20.0 / qblur=0.5 / ip_ratio=1.40 / aq=1:1.00
Language : English
Encoded date : UTC 2018-09-23 13:29:20
Tagged date : UTC 2018-09-23 13:29:26
Color range : Limited
Color primaries : BT.709
Transfer characteristics : BT.709
Matrix coefficients : BT.709
Video #2
ID : 6
Format : JPEG
Codec ID : jpeg
Duration : 1h 43mn
Bit rate mode : Variable
Bit rate : 467 bps
Width : 640 pixels
Height : 270 pixels
Display aspect ratio : 2.40:1
Frame rate mode : Variable
Frame rate : 0.002 fps
Minimum frame rate : 0.001 fps
Maximum frame rate : 0.008 fps
Color space : YUV
Chroma subsampling : 4:2:0
Bit depth : 8 bits
Compression mode : Lossy
Bits/(Pixel*Frame) : 1.351
Stream size : 314 KiB (0%)
Title : Chapter Images
Language : English
Encoded date : UTC 2018-09-23 13:29:32
Tagged date : UTC 2018-09-23 13:29:32
Audio #1
ID : 2
Format : AAC
Format/Info : Advanced Audio Codec
Format profile : LC
Codec ID : 40
Duration : 1h 43mn
Source duration : 1h 43mn
Bit rate mode : Variable
Bit rate : 126 Kbps
Maximum bit rate : 180 Kbps
Channel(s) : 2 channels
Channel positions : Front: L R
Sampling rate : 48.0 KHz
Compression mode : Lossy
Stream size : 93.3 MiB (5%)
Source stream size : 93.3 MiB (5%)
Title : Russian Stereo
Language : Russian
Encoded date : UTC 2018-09-23 13:29:20
Tagged date : UTC 2018-09-23 13:29:29
Audio #2
ID : 3
Format : AAC
Format/Info : Advanced Audio Codec
Format profile : LC
Codec ID : 40
Duration : 1h 43mn
Source duration : 1h 43mn
Bit rate mode : Variable
Bit rate : 126 Kbps
Maximum bit rate : 185 Kbps
Channel(s) : 2 channels
Channel positions : Front: L R
Sampling rate : 48.0 KHz
Compression mode : Lossy
Stream size : 93.4 MiB (5%)
Source stream size : 93.4 MiB (5%)
Title : English Stereo
Language : English
Encoded date : UTC 2018-09-23 13:29:20
Tagged date : UTC 2018-09-23 13:29:29
Text
ID : 4
Format : Timed Text
Muxing mode : sbtl
Codec ID : tx3g
Duration : 1h 43mn
Bit rate mode : Variable
Bit rate : 62 bps
Stream size : 47.0 KiB (0%)
Title : English full
Language : English
Encoded date : UTC 2018-09-23 13:29:21
Tagged date : UTC 2018-09-23 13:29:21
Menu #1
00:00:00.000 : 1
00:02:11.000 : 2
00:13:28.000 : 3
00:25:09.000 : 4
00:35:38.000 : 5
00:48:04.000 : 6
01:01:07.000 : 7
01:11:40.000 : 8
01:21:26.000 : 9
01:28:05.000 : 10
01:38:10.000 : 11
Menu #2
ID : 5
Codec ID : text
Duration : 1h 43mn
Language : English
Encoded date : UTC 2018-09-23 13:29:29
Tagged date : UTC 2018-09-23 13:29:29
00:00:00.000 : 1
00:02:11.000 : 2
00:13:28.000 : 3
00:25:09.000 : 4
00:35:38.000 : 5
00:48:04.000 : 6
01:01:07.000 : 7
01:11:40.000 : 8
01:21:26.000 : 9
01:28:05.000 : 10
01:38:10.000 : 11
Bit rate mode : VBR

x264 лог

x264 [info]: frame I:1201  Avg QP:11.26  size: 63259
x264 [info]: frame P:33607 Avg QP:13.61  size: 21211
x264 [info]: frame B:114345 Avg QP:14.92  size:  8061
x264 [info]: consecutive B-frames:  1.6%  2.4%  5.2% 38.6% 16.6% 32.8%  2.8%
x264 [info]: mb I  I16..4:  9.5% 77.0% 13.5%
x264 [info]: mb P  I16..4:  1.9% 10.1%  1.6%  P16..4: 32.9% 32.5% 18.7%  0.0%  0.0%    skip: 2.4%
x264 [info]: mb B  I16..4:  0.1%  0.7%  0.1%  B16..8: 36.6% 18.7%  5.4%  direct: 6.9%  skip:31.5%  L0:46.2% L1:42.4% BI:11.4%
x264 [info]: 8x8 transform intra:75.5% inter:64.1%
x264 [info]: coded y,uvDC,uvAC intra: 88.5% 91.8% 78.8% inter: 32.6% 32.3% 7.4%
x264 [info]: i16 v,h,dc,p: 30%  8%  6% 56%
x264 [info]: i8 v,h,dc,ddl,ddr,vr,hd,vl,hu: 13%  8%  9%  9% 12% 13% 11% 13% 13%
x264 [info]: i4 v,h,dc,ddl,ddr,vr,hd,vl,hu: 12%  7%  3% 10% 15% 16% 13% 12% 13%
x264 [info]: i8c dc,h,v,p: 48% 19% 18% 14%
x264 [info]: Weighted P-Frames: Y:1.8% UV:1.0%
x264 [info]: ref P L0: 50.1%  5.6% 18.8%  7.6%  5.9%  4.2%  3.6%  2.1%  2.0%  0.0%  0.0%
x264 [info]: ref B L0: 71.8% 13.2%  6.3%  3.2%  2.2%  1.8%  1.1%  0.4%
x264 [info]: ref B L1: 94.4%  5.6%
x264 [info]: kb/s:2199.74

Скриншоты

-

Релиз подготовлен для просмотра на Apple TV, iPad, iPhone, iPod Touch.
Для просмотра данного релиза на компьютере с ОС Windows рекомендуется использовать VLC media player
Вы не можете начинать темы
Вы не можете отвечать на сообщения
Вы не можете редактировать свои сообщения
Вы не можете удалять свои сообщения
Вы не можете голосовать в опросах
Вы не можете прикреплять файлы к сообщениям
Вы можете скачивать файлы
!ВНИМАНИЕ!

Сайт не предоставляет электронные версии произведений, а занимается лишь коллекционированием и каталогизацией ссылок, присылаемых и публикуемых на форуме нашими читателями. Если вы являетесь правообладателем какого-либо представленного материала и не желаете, чтобы ссылка на него находилась в нашем каталоге, свяжитесь с нами, и мы незамедлительно удалим ее. Файлы для обмена на трекере предоставлены пользователями сайта, и администрация не несет ответственности за их содержание. Просьба не заливать файлы, защищенные авторскими правами, а также файлы нелегального содержания!

Искали программы, игры, дополнения, музыка mp3, аниме, аудио книги, журналы? Добро пожаловать на свободный торрент трекер Torrents, у нас можно скачать бесплатно, без смс и регистрации и прочих ограничений лучшие, отборные сборки программ, игр. Скачать торрентом не составит труда даже не опытному пользователю. Раздачи ежедневно обновляются, только лучшие и качественные раздачи, подробные описания и скриншоты. Огромная коллекция программ для работы со звуком, графикой, дизайном, а так же множество плагинов и инструментов к ним с подробной инструкцией и рекомендациями. Прошивки для навигаторов, карты. Разнообразные игры, для Windows, Linux. В коллекцие есть и старые игры любых жанров, Rpg, Action, Shooter, strategy Множество дополнений, модификаций, сценариев для популярных игр в жанре экш, рпг, гонки, стратегии, логические игры. Множество аддонов и сценариев для Microsoft Flight Simulator Большая коллекция книг, учебников. Если нет возможности купить печатное издание - смело скачивайте цифровую версию книги или, быть может, журнала. Не любите читать - можно загрузить бесплатно аудикнигу. Для веб дизайнеров и программистов так же найдется множество специализированного софта, таких как: редакторы с подсветкой, среды программирования, компоненты, системы управления базами данных, разнообразные скрипты и шаблоны. Не так давно у нас появился материал для автолюбителей и владельцев мото - оригинальные и неоригинальные каталоги запчастей, книги и журналы по ремонту и обслуживанию, видеоуроки, статьи по чип тюнингу, прошивкам. Процедура получения контента элементарная, достаточно просто скачать торрент файл и добавить его в загрузку в вашем торрент клиенте. Если у вас нет специального торрент клиента, вы можете его скачать у нас.