8 подруг Оушена / Ocean\'s Eight (Гэри Росс / Gary Ross ) [2018, США, Боевик, триллер, комедия, криминал, WEB-DLRip, SD (480p)] DUB + Original + sub (rus, ukr, rus) 

Цитировать
8 подруг Оушена / Ocean's Eight
«Украдут не только ваше внимание»
6.651 / 10 6.30 / 10
- Год выпуска: 2018
Страна: США
Жанр: Боевик, триллер, комедия, криминал
Продолжительность: 01:50:07
Перевод: Дублированный (iTunes)
Оригинальная аудиодорожка: Есть
Cубтитры: Русские форсированные, Украинские форсированные, Русские
Режиссёр: Гэри Росс
Сценарий: Гэри Росс, Оливия Милч, Джордж Клейтон Джонсон
Продюсер: Диана Альварез, Брюс Берман, Джесси Эрман
Оператор: Эйгил Брилд
Композитор: Дэниэл Пембертон
Художник: Алекс ДиДжерландо, Генри Данн, Ким Дженнингс
Монтаж: Жюльетт Вельфлин
В ролях: Сандра Буллок, Кейт Бланшетт, Энн Хэтэуэй, Хелена Бонем Картер, Рианна, Сара Полсон, Минди Кейлинг, Ричард Армитедж, Аквафина, Гриффин Данн
Бюджет: $70 000 000
Сборы в США: $138 854 935
Сборы в мире: + $149 100 000 = $287 954 935
Сборы в России: $6 613 491
Мировая премьера: 5 июня 2018
Премьера (РФ): 21 июня 2018, «Каро-Премьер»
Цифровой релиз: 22 августа 2018, «Warner Bros.»
Описание: Пять лет, восемь месяцев, 12 дней… и далее. Именно столько Дебби Оушен разрабатывала план величайшего ограбления своей жизни. Она точно знает, что для него потребуется, — команда лучших в своем деле, начиная с ее давней сообщницы Лу Миллер. Вместе они собирают команду уникальных специалистов. Их цель — неотразимые 150 миллионов долларов в бриллиантах — в бриллиантах на шее всемирно известной актрисы Дафны Клюгер, к которой будет приковано всеобщее внимание на главном событии года — бале в Метрополитен-музее. Сам план бесподобен, но и реализация должна быть безупречна, если они хотят войти и выйти с драгоценностями в руках. Прямо у всех на виду.-Качество исходника: WEB-DL 1080p (BlueBird)
Качество: WEB-DLRip
Тип: SD (480p)
Контейнер: M4V
Видео: H.264, 640x356 анаморф 852х356, 2.40:1, 1 300 Kbps, 23.976 (24000/1001) fps
Аудио 1: Русский/Дублированный (iTunes), AAC / 2.0 / 128 Kbps / 48.0 KHz
Аудио 2: Английский/Оригинальная дорожка , AAC / 2.0 / 128 Kbps / 48.0 KHz
Аудио 3: Украинский/Дублированный (iTunes), AAC / 2.0 / 128 Kbps / 48.0 KHz
Субтитры 1: Русские форсированные
Субтитры 2: Украинские форсированные
Субтитры 3: Русские полные
-

iTunes Meta Tags

Sort Name: Ocean's 8
XID: Apple:vendor_id:2018-983177
contentID: 1390225970
Copyright: © 2018 Warner Bros. Entertainment Inc., Village Roadshow (BVI) Limited.
Screenwriters: Гэри Росс, Оливия Милч, Джордж Клейтон Джонсон
Producers: Диана Альварез, Брюс Берман, Джесси Эрма
Director: Гэри Росс
Cast: Сандра Буллок, Кейт Бланшетт, Энн Хэтэуэй, Хелена Бонем Картер, Рианна, Сара Полсон, Минди Кейлинг, Ричард Армитедж, Аквафина, Гриффин Данн
Studio: Warner Bros.
Rating Annotation: Rated PG-13 for language, drug use, and some suggestive content.
Rating: 4
Long Description: Пять лет, восемь месяцев, 12 дней... и далее. Именно столько Дебби Оушен разрабатывала план величайшего ограбления своей жизни.
Она точно знает, что для него потребуется, - команда лучших в своем деле, начиная с ее давней сообщницы Лу Миллер. Вместе они собирают команду уникальных специалистов. Их цель - неотразимые 150 миллионов долларов в бриллиантах - в бриллиантах на шее всемирно известной актрисы Дафны Клюгер, к которой будет приковано всеобщее внимание на главном событии года - бале в Метрополитен-музее.
Сам план бесподобен, но и реализация должна быть безупречна, если они хотят войти и выйти с драгоценностями в руках. Прямо у всех на виду.
Description: Пять лет, восемь месяцев, 12 дней... и далее. Именно столько Дебби Оушен разрабатывала план величайшего ограбления своей жизни...
Release Date: 2018-06-05T08:00:00Z
Genre: Action & Adventure
Artist: Gary Ross
Name: Ocean's 8

MediaInfo

General
Complete name                            : /Users/imac/HandBrake/Ocean's.8.(480p).(pk)..m4v
Format                                   : MPEG-4
Codec ID                                 : M4V  (M4V /M4A /mp42/isom)
File size                                : 1.30 GiB
Duration                                 : 1h 50mn
Overall bit rate mode                    : Variable
Overall bit rate                         : 1 685 Kbps
Movie name                               : Ocean's 8
Performer                                : Gary Ross
Director                                 : Гэри Росс
Actor                                    : Сандра Буллок / Кейт Бланшетт / Энн Хэтэуэй / Хелена Бонем Картер / Рианна / Сара Полсон / Минди Кейлинг / Ричард Армитедж / Аквафина / Гриффин Данн
Screenplay by                            : Гэри Росс / Оливия Милч / Джордж Клейтон Джонсон
Producer                                 : Диана Альварез / Брюс Берман / Джесси Эрма
Production studio                        : Warner Bros.
Genre                                    : Action & Adventure
ContentType                              : Short Film
Description                              : Пять лет, восемь месяцев, 12 дней... и далее. Именно столько Дебби Оушен разрабатывала план величайшего ограбления своей жизни...
Recorded date                            : UTC 2018-06-05 08:00:00
Encoded date                             : UTC 2018-08-24 20:41:19
Tagged date                              : UTC 2018-08-24 20:43:00
Copyright                                : © 2018 Warner Bros. Entertainment Inc., Village Roadshow (BVI) Limited.
Cover                                    : Yes
Rating                                   : None
Title/Sort                               : Ocean's 8
LongDescription                          : Пять лет, восемь месяцев, 12 дней... и далее. Именно столько Дебби Оушен разрабатывала план величайшего ограбления своей жизни. / Она точно знает, что для него потребуется, - команда лучших в своем деле, начиная с ее давней сообщницы Лу Миллер. Вместе они собирают команду уникальных специалистов. Их цель - неотразимые 150 миллионов долларов в бриллиантах - в бриллиантах на шее всемирно известной актрисы Дафны Клюгер, к которой будет приковано всеобщее внимание на главном событии года - бале в Метрополитен-музее. / Сам план бесподобен, но и реализация должна быть безупречна, если они хотят войти и выйти с драгоценностями в руках. Прямо у всех на виду.
AppleStoreCatalogID                      : 1390225970
Vendor                                   : Apple:vendor_id:2018-983177
ContentRating                            : mpaa|PG-13|300|Rated PG-13 for language, drug use, and some suggestive content.
Video #1
ID                                       : 1
Format                                   : AVC
Format/Info                              : Advanced Video Codec
Format profile                           : Baseline@L3
Format settings                          : 2 Ref Frames
Format settings, CABAC                   : No
Format settings, ReFrames                : 2 frames
Codec ID                                 : avc1
Codec ID/Info                            : Advanced Video Coding
Duration                                 : 1h 50mn
Bit rate                                 : 1 300 Kbps
Width                                    : 640 pixels
Height                                   : 356 pixels
Display aspect ratio                     : 2.40:1
Frame rate mode                          : Variable
Frame rate                               : 23.976 (24000/1001) fps
Minimum frame rate                       : 23.974 fps
Maximum frame rate                       : 23.981 fps
Color space                              : YUV
Chroma subsampling                       : 4:2:0
Bit depth                                : 8 bits
Scan type                                : Progressive
Bits/(Pixel*Frame)                       : 0.238
Stream size                              : 1 024 MiB (77%)
Title                                    : Main Program
Writing library                          : x264 core 155 r2901 7d0ff22
Encoding settings                        : cabac=0 / ref=2 / deblock=1:0:0 / analyse=0x1:0x111 / me=umh / subme=6 / psy=1 / psy_rd=1.00:0.00 / mixed_ref=1 / me_range=16 / chroma_me=1 / trellis=0 / 8x8dct=0 / cqm=0 / deadzone=21,11 / fast_pskip=1 / chroma_qp_offset=-2 / threads=11 / lookahead_threads=1 / sliced_threads=0 / nr=0 / decimate=1 / interlaced=0 / bluray_compat=0 / constrained_intra=0 / bframes=0 / weightp=0 / keyint=240 / keyint_min=24 / scenecut=40 / intra_refresh=0 / rc_lookahead=40 / rc=2pass / mbtree=1 / bitrate=1300 / ratetol=1.0 / qcomp=0.60 / qpmin=0 / qpmax=69 / qpstep=4 / cplxblur=20.0 / qblur=0.5 / vbv_maxrate=5000 / vbv_bufsize=5000 / nal_hrd=none / filler=0 / ip_ratio=1.40 / aq=1:1.00
Language                                 : English
Encoded date                             : UTC 2018-08-24 20:41:19
Tagged date                              : UTC 2018-08-24 20:41:26
Color range                              : Limited
Color primaries                          : BT.709
Transfer characteristics                 : BT.709
Matrix coefficients                      : BT.709
Menus                                    : 8,9
Video #2
ID                                       : 9
Format                                   : JPEG
Codec ID                                 : jpeg
Duration                                 : 1h 50mn
Bit rate mode                            : Variable
Bit rate                                 : 462 bps
Width                                    : 640 pixels
Height                                   : 267 pixels
Display aspect ratio                     : 2.40:1
Frame rate mode                          : Variable
Frame rate                               : 0.002 fps
Minimum frame rate                       : 0.001 fps
Maximum frame rate                       : 0.003 fps
Color space                              : YUV
Chroma subsampling                       : 4:2:0
Bit depth                                : 8 bits
Compression mode                         : Lossy
Bits/(Pixel*Frame)                       : 1.352
Stream size                              : 338 KiB (0%)
Title                                    : Chapter Images
Language                                 : English
Default                                  : No
Encoded date                             : UTC 2018-08-24 20:41:32
Tagged date                              : UTC 2018-08-24 20:41:32
Menu For                                 : 1
ColorSpace_ICC                           : RGB
Audio #1
ID                                       : 2
Format                                   : AAC
Format/Info                              : Advanced Audio Codec
Format profile                           : LC
Codec ID                                 : mp4a-40-2
Duration                                 : 1h 50mn
Source duration                          : 1h 50mn
Bit rate mode                            : Variable
Bit rate                                 : 125 Kbps
Maximum bit rate                         : 200 Kbps
Channel(s)                               : 2 channels
Channel positions                        : Front: L R
Sampling rate                            : 48.0 KHz
Frame rate                               : 46.875 fps (1024 SPF)
Compression mode                         : Lossy
Stream size                              : 98.7 MiB (7%)
Source stream size                       : 98.7 MiB (7%)
Title                                    : Russian Stereo
Language                                 : Russian
Default                                  : Yes
Alternate group                          : 1
Encoded date                             : UTC 2018-08-24 20:41:19
Tagged date                              : UTC 2018-08-24 20:41:29
Subtitles                                : 5,7
Audio #2
ID                                       : 3
Format                                   : AAC
Format/Info                              : Advanced Audio Codec
Format profile                           : LC
Codec ID                                 : mp4a-40-2
Duration                                 : 1h 50mn
Source duration                          : 1h 50mn
Bit rate mode                            : Variable
Bit rate                                 : 125 Kbps
Maximum bit rate                         : 204 Kbps
Channel(s)                               : 2 channels
Channel positions                        : Front: L R
Sampling rate                            : 48.0 KHz
Frame rate                               : 46.875 fps (1024 SPF)
Compression mode                         : Lossy
Stream size                              : 98.2 MiB (7%)
Source stream size                       : 98.2 MiB (7%)
Title                                    : English Stereo
Language                                 : English
Default                                  : No
Alternate group                          : 1
Encoded date                             : UTC 2018-08-24 20:41:19
Tagged date                              : UTC 2018-08-24 20:41:29
Audio #3
ID                                       : 4
Format                                   : AAC
Format/Info                              : Advanced Audio Codec
Format profile                           : LC
Codec ID                                 : mp4a-40-2
Duration                                 : 1h 50mn
Source duration                          : 1h 50mn
Bit rate mode                            : Variable
Bit rate                                 : 126 Kbps
Maximum bit rate                         : 195 Kbps
Channel(s)                               : 2 channels
Channel positions                        : Front: L R
Sampling rate                            : 48.0 KHz
Frame rate                               : 46.875 fps (1024 SPF)
Compression mode                         : Lossy
Stream size                              : 99.1 MiB (7%)
Source stream size                       : 99.1 MiB (7%)
Title                                    : Ukrainian Stereo
Language                                 : Ukrainian
Default                                  : No
Alternate group                          : 1
Encoded date                             : UTC 2018-08-24 20:41:19
Tagged date                              : UTC 2018-08-24 20:41:29
Subtitles                                : 6
Text #1
ID                                       : 5
Format                                   : Timed Text
Muxing mode                              : sbtl
Codec ID                                 : tx3g
Duration                                 : 1h 45mn
Bit rate mode                            : Variable
Bit rate                                 : 8 bps
Stream size                              : 6.13 KiB (0%)
Title                                    : Russian forced
Language                                 : Russian
Default                                  : Yes
Forced                                   : Yes
Alternate group                          : 2
Encoded date                             : UTC 2018-08-24 20:41:19
Tagged date                              : UTC 2018-08-24 20:41:29
Subtitles For                            : 2
Full Alternative                         : 7
Text #2
ID                                       : 6
Format                                   : Timed Text
Muxing mode                              : sbtl
Codec ID                                 : tx3g
Duration                                 : 1h 43mn
Bit rate mode                            : Variable
Bit rate                                 : 8 bps
Stream size                              : 5.99 KiB (0%)
Title                                    : Ukrainian forced
Language                                 : Ukrainian
Default                                  : No
Forced                                   : Yes
Alternate group                          : 2
Encoded date                             : UTC 2018-08-24 20:41:19
Tagged date                              : UTC 2018-08-24 20:41:29
Subtitles For                            : 4
Text #3
ID                                       : 7
Format                                   : Timed Text
Muxing mode                              : sbtl
Codec ID                                 : tx3g
Duration                                 : 1h 45mn
Bit rate mode                            : Variable
Bit rate                                 : 118 bps
Stream size                              : 91.7 KiB (0%)
Title                                    : Russian full
Language                                 : Russian
Default                                  : No
Forced                                   : No
Alternate group                          : 2
Encoded date                             : UTC 2018-08-24 20:41:19
Tagged date                              : UTC 2018-08-24 20:41:29
Subtitles For                            : 2
Forced Alternative                       : 5
Menu #1
00:00:00.000                             : 1
00:11:17.000                             : 2
00:20:05.000                             : 3
00:31:36.000                             : 4
00:41:28.000                             : 5
00:49:17.000                             : 6
00:56:21.000                             : 7
01:05:48.000                             : 8
01:16:30.000                             : 9
01:27:00.000                             : 10
01:35:41.000                             : 11
01:44:07.000                             : 12
Menu #2
ID                                       : 8
Codec ID                                 : text
Duration                                 : 1h 50mn
Language                                 : English
Encoded date                             : UTC 2018-08-24 20:41:29
Tagged date                              : UTC 2018-08-24 20:41:29
Menu For                                 : 1
00:00:00.000                             : 1
00:11:17.000                             : 2
00:20:05.000                             : 3
00:31:36.000                             : 4
00:41:28.000                             : 5
00:49:17.000                             : 6
00:56:21.000                             : 7
01:05:48.000                             : 8
01:16:30.000                             : 9
01:27:00.000                             : 10
01:35:41.000                             : 11
01:44:07.000                             : 12
Bit rate mode                            : VBR

x264 лог

x264 [info]: frame I:1905  Avg QP:13.74  size: 31741
x264 [info]: frame P:156523 Avg QP:16.45  size:  6474
x264 [info]: mb I  I16..4: 19.2%  0.0% 80.8%
x264 [info]: mb P  I16..4:  0.7%  0.0%  2.3%  P16..4: 43.0% 24.6%  9.4%  0.0%  0.0%    skip:19.9%
x264 [info]: coded y,uvDC,uvAC intra: 68.1% 82.5% 64.6% inter: 25.7% 18.7% 5.3%
x264 [info]: i16 v,h,dc,p: 48% 13%  8% 31%
x264 [info]: i4 v,h,dc,ddl,ddr,vr,hd,vl,hu: 44% 13% 13%  4%  6%  7%  4%  6%  4%
x264 [info]: i8c dc,h,v,p: 46% 14% 33%  7%
x264 [info]: ref P L0: 73.4% 26.6%
x264 [info]: kb/s:1300.03

Скриншоты

-

Релиз подготовлен для просмотра на Apple TV, iPad, iPhone, iPod Touch.
Для просмотра данного релиза на компьютере с ОС Windows рекомендуется использовать VLC media player
Вы не можете начинать темы
Вы не можете отвечать на сообщения
Вы не можете редактировать свои сообщения
Вы не можете удалять свои сообщения
Вы не можете голосовать в опросах
Вы не можете прикреплять файлы к сообщениям
Вы можете скачивать файлы
!ВНИМАНИЕ!

Сайт не предоставляет электронные версии произведений, а занимается лишь коллекционированием и каталогизацией ссылок, присылаемых и публикуемых на форуме нашими читателями. Если вы являетесь правообладателем какого-либо представленного материала и не желаете, чтобы ссылка на него находилась в нашем каталоге, свяжитесь с нами, и мы незамедлительно удалим ее. Файлы для обмена на трекере предоставлены пользователями сайта, и администрация не несет ответственности за их содержание. Просьба не заливать файлы, защищенные авторскими правами, а также файлы нелегального содержания!

Искали программы, игры, дополнения, музыка mp3, аниме, аудио книги, журналы? Добро пожаловать на свободный торрент трекер Torrents, у нас можно скачать бесплатно, без смс и регистрации и прочих ограничений лучшие, отборные сборки программ, игр. Скачать торрентом не составит труда даже не опытному пользователю. Раздачи ежедневно обновляются, только лучшие и качественные раздачи, подробные описания и скриншоты. Огромная коллекция программ для работы со звуком, графикой, дизайном, а так же множество плагинов и инструментов к ним с подробной инструкцией и рекомендациями. Прошивки для навигаторов, карты. Разнообразные игры, для Windows, Linux. В коллекцие есть и старые игры любых жанров, Rpg, Action, Shooter, strategy Множество дополнений, модификаций, сценариев для популярных игр в жанре экш, рпг, гонки, стратегии, логические игры. Множество аддонов и сценариев для Microsoft Flight Simulator Большая коллекция книг, учебников. Если нет возможности купить печатное издание - смело скачивайте цифровую версию книги или, быть может, журнала. Не любите читать - можно загрузить бесплатно аудикнигу. Для веб дизайнеров и программистов так же найдется множество специализированного софта, таких как: редакторы с подсветкой, среды программирования, компоненты, системы управления базами данных, разнообразные скрипты и шаблоны. Не так давно у нас появился материал для автолюбителей и владельцев мото - оригинальные и неоригинальные каталоги запчастей, книги и журналы по ремонту и обслуживанию, видеоуроки, статьи по чип тюнингу, прошивкам. Процедура получения контента элементарная, достаточно просто скачать торрент файл и добавить его в загрузку в вашем торрент клиенте. Если у вас нет специального торрент клиента, вы можете его скачать у нас.