Такси 5 / Taxi 5 (Франк Гастамбид / Franck Gastambide ) [2018, Франция, Боевик, комедия, криминал, приключения, BDRip, SD (480p)] DUB + Original + sub (eng) 

Цитировать
Такси 5 / Taxi 5
«Вызывали?»
4.652 / 10 5.20 / 10
- Год выпуска: 2018
Страна: Франция
Жанр: Боевик, комедия, криминал, приключения
Продолжительность: 01:41:54
Перевод: Дублированный (iTunes)
Оригинальная аудиодорожка: Есть
Cубтитры: Английские
Режиссёр: Франк Гастамбид
Сценарий: Люк Бессон, Франк Гастамбид, Стефан Казанджян
Продюсер: Люк Бессон, Фанни Бессон
Оператор: Винсент Ричард
Композитор: Бастид Донни
Художник: Сэмюэл Тессер, Клер Лаказе, Тьерри Руксель
Монтаж: Julien Rey
В ролях: Франк Гастамбид, Малик Бенталха, Бернар Фарси, Сальваторе Эспозито, Эдуард Монтут, Сабрина Уазани, Сэнд Ван Рой, Ануар Тубали, Месье Пуп, Сисси Дюпарк
Сборы в России: $1 713 453
Мировая премьера: 7 апреля 2018
Премьера (РФ): 10 мая 2018, «Централ Партнершип»
Цифровой релиз: 13 августа 2018, «Централ Партнершип»
Описание: Экс-комиссар Жибер, ставший самым непутевым в истории города мэром Марселя, поручает переведенному из столицы новобранцу Сильвану Маро разобраться с неуловимой «бандой итальянцев» на Ferrari. Чтобы остановить их, Маро, суперкопу и суперводителю, приходится объединиться с племянником Даниэля. Парню досталось знаменитое белое такси дяди, но не его талант.-Качество исходника: BDRemux (BlueBird)
Качество: BDRip
Тип: SD (480p)
Контейнер: M4V
Видео: H.264, 852x356 анаморф 640x356, 2.40:1, 1 300 Kbps, 23.976 fps
Аудио 1: Русский/Дублированный (iTunes), AAC / 2.0 / 128 Kbps / 48.0 KHz
Аудио 2: Французский/Оригинальная дорожка , AAC / 2.0 / 128 Kbps / 48.0 KHz
Субтитры: Английские полные
-

iTunes Meta Tags

Sort Name: Taxi 5
XID: Apple:vendor_id:2018-1047736
contentID: 1417663271
Copyright: © 2018 Twentieth Century Fox Film Corporation. All rights reserved.
Screenwriters: Люк Бессон, Франк Гастамбид, Стефан Казанджян
Producers: Люк Бессон, Фанни Бессон
Director: Франк Гастамбид
Cast: Франк Гастамбид, Малик Бенталха, Бернар Фарси, Сальваторе Эспозито, Эдуард Монтут, Сабрина Уазани, Сэнд Ван Рой, Ануар Тубали, Месье Пуп, Сисси Дюпарк
Studio: 20th Century Fox
Rating: 60
Long Description: Экс-комиссар Жибер, ставший самым непутевым в истории города мэром Марселя, поручает переведенному из столицы новобранцу Сильвану Маро разобраться с неуловимой "бандой итальянцев" на Ferrari. Чтобы остановить их, Маро, суперкопу и суперводителю, приходится объединиться с племянником Даниэля. Парню досталось знаменитое белое такси дяди, но не его талант.
Description: Экс-комиссар Жибер, ставший самым непутевым в истории города мэром Марселя, поручает переведенному из столицы новобранцу Сильвану Маро разобраться с неуловимой "бандой итальянцев" на Ferrari. Чтобы остановить их, Маро, суперкопу и суперводителю, приходится объединиться с племянником Даниэля. Парню досталось знаменитое белое такси дяди, но не его талант.
Release Date: 2018-04-07T08:00:00Z
Genre: Action & Adventure
Artist: Franck Gastambide & Malik Bentalha
Name: Taxi 5

MediaInfo

General
Complete name                            : /Users/imac/HandBrake/Taxi.5.(480p).(pk).m4v
Format                                   : MPEG-4
Codec ID                                 : M4V  (M4V /M4A /mp42/isom)
File size                                : 1.11 GiB
Duration                                 : 1h 41mn
Overall bit rate mode                    : Variable
Overall bit rate                         : 1 558 Kbps
Movie name                               : Taxi 5
Performer                                : Franck Gastambide & Malik Bentalha
Director                                 : Франк Гастамбид
Actor                                    : Франк Гастамбид / Малик Бенталха / Бернар Фарси / Сальваторе Эспозито / Эдуард Монтут / Сабрина Уазани / Сэнд Ван Рой / Ануар Тубали / Месье Пуп / Сисси Дюпарк
Screenplay by                            : Люк Бессон / Франк Гастамбид / Стефан Казанджян
Producer                                 : Люк Бессон / Фанни Бессон
Production studio                        : 20th Century Fox
Genre                                    : Action & Adventure
ContentType                              : Short Film
Description                              : Экс-комиссар Жибер, ставший самым непутевым в истории города мэром Марселя, поручает переведенному из столицы новобранцу Сильвану Маро разобраться с неуловимой "бандой итальянцев" на Ferrari. Чтобы остановить их, Маро, суперкопу и суперводителю, приходится объединиться с племянником Даниэля. Парню досталось знаменитое белое такси дяди, но не его талант.
Recorded date                            : UTC 2018-04-07 08:00:00
Encoded date                             : UTC 2018-08-18 17:51:08
Tagged date                              : UTC 2018-08-18 17:52:24
Copyright                                : © 2018 Twentieth Century Fox Film Corporation. All rights reserved.
Cover                                    : Yes
Rating                                   : None
Title/Sort                               : Taxi 5
LongDescription                          : Экс-комиссар Жибер, ставший самым непутевым в истории города мэром Марселя, поручает переведенному из столицы новобранцу Сильвану Маро разобраться с неуловимой "бандой итальянцев" на Ferrari. Чтобы остановить их, Маро, суперкопу и суперводителю, приходится объединиться с племянником Даниэля. Парню досталось знаменитое белое такси дяди, но не его талант.
AppleStoreCatalogID                      : 1417663271
Vendor                                   : Apple:vendor_id:2018-1047736
ContentRating                            : fr-movie|Tout public|000|
Video #1
ID                                       : 1
Format                                   : AVC
Format/Info                              : Advanced Video Codec
Format profile                           : Baseline@L3
Format settings                          : 2 Ref Frames
Format settings, CABAC                   : No
Format settings, ReFrames                : 2 frames
Codec ID                                 : avc1
Codec ID/Info                            : Advanced Video Coding
Duration                                 : 1h 41mn
Bit rate                                 : 1 300 Kbps
Width                                    : 640 pixels
Height                                   : 356 pixels
Display aspect ratio                     : 2.40:1
Frame rate mode                          : Variable
Frame rate                               : 23.976 fps
Minimum frame rate                       : 23.810 fps
Maximum frame rate                       : 23.981 fps
Color space                              : YUV
Chroma subsampling                       : 4:2:0
Bit depth                                : 8 bits
Scan type                                : Progressive
Bits/(Pixel*Frame)                       : 0.238
Stream size                              : 946 MiB (83%)
Title                                    : Main Program
Writing library                          : x264 core 155 r2901 7d0ff22
Encoding settings                        : cabac=0 / ref=2 / deblock=1:0:0 / analyse=0x1:0x111 / me=umh / subme=6 / psy=1 / psy_rd=1.00:0.00 / mixed_ref=1 / me_range=16 / chroma_me=1 / trellis=0 / 8x8dct=0 / cqm=0 / deadzone=21,11 / fast_pskip=1 / chroma_qp_offset=-2 / threads=11 / lookahead_threads=1 / sliced_threads=0 / nr=0 / decimate=1 / interlaced=0 / bluray_compat=0 / constrained_intra=0 / bframes=0 / weightp=0 / keyint=240 / keyint_min=24 / scenecut=40 / intra_refresh=0 / rc_lookahead=40 / rc=2pass / mbtree=1 / bitrate=1300 / ratetol=1.0 / qcomp=0.60 / qpmin=0 / qpmax=69 / qpstep=4 / cplxblur=20.0 / qblur=0.5 / vbv_maxrate=5000 / vbv_bufsize=5000 / nal_hrd=none / filler=0 / ip_ratio=1.40 / aq=1:1.00
Language                                 : English
Encoded date                             : UTC 2018-08-18 17:51:08
Tagged date                              : UTC 2018-08-18 17:51:13
Color range                              : Limited
Color primaries                          : BT.709
Transfer characteristics                 : BT.709
Matrix coefficients                      : BT.709
Menus                                    : 5,6
Video #2
ID                                       : 6
Format                                   : JPEG
Codec ID                                 : jpeg
Duration                                 : 1h 41mn
Bit rate mode                            : Variable
Bit rate                                 : 674 bps
Width                                    : 640 pixels
Height                                   : 267 pixels
Display aspect ratio                     : 2.40:1
Frame rate mode                          : Constant
Frame rate                               : 0.002 fps
Color space                              : YUV
Chroma subsampling                       : 4:2:0
Bit depth                                : 8 bits
Compression mode                         : Lossy
Bits/(Pixel*Frame)                       : 1.972
Stream size                              : 494 KiB (0%)
Title                                    : Chapter Images
Language                                 : English
Default                                  : No
Encoded date                             : UTC 2018-08-18 17:51:33
Tagged date                              : UTC 2018-08-18 17:51:33
Menu For                                 : 1
ColorSpace_ICC                           : RGB
Audio #1
ID                                       : 2
Format                                   : AAC
Format/Info                              : Advanced Audio Codec
Format profile                           : LC
Codec ID                                 : mp4a-40-2
Duration                                 : 1h 41mn
Source duration                          : 1h 41mn
Bit rate mode                            : Variable
Bit rate                                 : 126 Kbps
Maximum bit rate                         : 191 Kbps
Channel(s)                               : 2 channels
Channel positions                        : Front: L R
Sampling rate                            : 48.0 KHz
Frame rate                               : 46.875 fps (1024 SPF)
Compression mode                         : Lossy
Stream size                              : 91.5 MiB (8%)
Source stream size                       : 91.5 MiB (8%)
Title                                    : Russian Stereo
Language                                 : Russian
Default                                  : Yes
Alternate group                          : 1
Encoded date                             : UTC 2018-08-18 17:51:09
Tagged date                              : UTC 2018-08-18 17:51:30
Audio #2
ID                                       : 3
Format                                   : AAC
Format/Info                              : Advanced Audio Codec
Format profile                           : LC
Codec ID                                 : mp4a-40-2
Duration                                 : 1h 41mn
Source duration                          : 1h 41mn
Bit rate mode                            : Variable
Bit rate                                 : 125 Kbps
Maximum bit rate                         : 204 Kbps
Channel(s)                               : 2 channels
Channel positions                        : Front: L R
Sampling rate                            : 48.0 KHz
Frame rate                               : 46.875 fps (1024 SPF)
Compression mode                         : Lossy
Stream size                              : 91.5 MiB (8%)
Source stream size                       : 91.5 MiB (8%)
Title                                    : French Stereo
Language                                 : French
Default                                  : No
Alternate group                          : 1
Encoded date                             : UTC 2018-08-18 17:51:09
Tagged date                              : UTC 2018-08-18 17:51:30
Text
ID                                       : 4
Format                                   : Timed Text
Muxing mode                              : sbtl
Codec ID                                 : tx3g
Duration                                 : 1h 36mn
Bit rate mode                            : Variable
Bit rate                                 : 73 bps
Stream size                              : 51.5 KiB (0%)
Title                                    : English full
Language                                 : English
Default                                  : Yes
Forced                                   : No
Alternate group                          : 2
Encoded date                             : UTC 2018-08-18 17:51:09
Tagged date                              : UTC 2018-08-18 17:51:30
Menu #1
00:00:00.000                             : 00:00:00.000
00:09:24.190                             : 00:09:24.167
00:17:19.458                             : 00:17:19.417
00:27:35.033                             : 00:27:35.000
00:34:09.762                             : 00:34:09.750
00:41:46.844                             : 00:41:46.833
00:50:04.135                             : 00:50:04.125
00:58:29.642                             : 00:58:29.625
01:06:05.724                             : 01:06:05.708
01:14:53.210                             : 01:14:53.167
01:23:59.341                             : 01:23:59.333
01:32:28.768                             : 01:32:28.750
Menu #2
ID                                       : 5
Codec ID                                 : text
Duration                                 : 1h 41mn
Language                                 : French
Encoded date                             : UTC 2018-08-18 17:51:30
Tagged date                              : UTC 2018-08-18 17:51:30
Bit rate mode                            : CBR
Menu For                                 : 1
00:00:00.000                             : 00:00:00.000
00:09:24.190                             : 00:09:24.167
00:17:19.458                             : 00:17:19.417
00:27:35.033                             : 00:27:35.000
00:34:09.762                             : 00:34:09.750
00:41:46.844                             : 00:41:46.833
00:50:04.135                             : 00:50:04.125
00:58:29.642                             : 00:58:29.625
01:06:05.724                             : 01:06:05.708
01:14:53.210                             : 01:14:53.167
01:23:59.341                             : 01:23:59.333
01:32:28.768                             : 01:32:28.750

x264 лог

x264 [info]: frame I:3280  Avg QP:18.12  size: 30619
x264 [info]: frame P:143309 Avg QP:21.00  size:  6222
x264 [info]: mb I  I16..4: 17.3%  0.0% 82.7%
x264 [info]: mb P  I16..4:  1.1%  0.0%  3.7%  P16..4: 42.8% 19.1%  8.0%  0.0%  0.0%    skip:25.3%
x264 [info]: coded y,uvDC,uvAC intra: 69.1% 78.3% 53.2% inter: 23.8% 23.7% 5.7%
x264 [info]: i16 v,h,dc,p: 37% 20%  8% 35%
x264 [info]: i4 v,h,dc,ddl,ddr,vr,hd,vl,hu: 32% 17% 12%  5%  7%  8%  7%  6%  5%
x264 [info]: i8c dc,h,v,p: 46% 19% 26%  8%
x264 [info]: ref P L0: 73.2% 26.8%
x264 [info]: kb/s:1298.12

Скриншоты

-

Релиз подготовлен для просмотра на Apple TV, iPad, iPhone, iPod Touch.
Для просмотра данного релиза на компьютере с ОС Windows рекомендуется использовать VLC media player
Вы не можете начинать темы
Вы не можете отвечать на сообщения
Вы не можете редактировать свои сообщения
Вы не можете удалять свои сообщения
Вы не можете голосовать в опросах
Вы не можете прикреплять файлы к сообщениям
Вы можете скачивать файлы
!ВНИМАНИЕ!

Сайт не предоставляет электронные версии произведений, а занимается лишь коллекционированием и каталогизацией ссылок, присылаемых и публикуемых на форуме нашими читателями. Если вы являетесь правообладателем какого-либо представленного материала и не желаете, чтобы ссылка на него находилась в нашем каталоге, свяжитесь с нами, и мы незамедлительно удалим ее. Файлы для обмена на трекере предоставлены пользователями сайта, и администрация не несет ответственности за их содержание. Просьба не заливать файлы, защищенные авторскими правами, а также файлы нелегального содержания!

Искали программы, игры, дополнения, музыка mp3, аниме, аудио книги, журналы? Добро пожаловать на свободный торрент трекер Torrents, у нас можно скачать бесплатно, без смс и регистрации и прочих ограничений лучшие, отборные сборки программ, игр. Скачать торрентом не составит труда даже не опытному пользователю. Раздачи ежедневно обновляются, только лучшие и качественные раздачи, подробные описания и скриншоты. Огромная коллекция программ для работы со звуком, графикой, дизайном, а так же множество плагинов и инструментов к ним с подробной инструкцией и рекомендациями. Прошивки для навигаторов, карты. Разнообразные игры, для Windows, Linux. В коллекцие есть и старые игры любых жанров, Rpg, Action, Shooter, strategy Множество дополнений, модификаций, сценариев для популярных игр в жанре экш, рпг, гонки, стратегии, логические игры. Множество аддонов и сценариев для Microsoft Flight Simulator Большая коллекция книг, учебников. Если нет возможности купить печатное издание - смело скачивайте цифровую версию книги или, быть может, журнала. Не любите читать - можно загрузить бесплатно аудикнигу. Для веб дизайнеров и программистов так же найдется множество специализированного софта, таких как: редакторы с подсветкой, среды программирования, компоненты, системы управления базами данных, разнообразные скрипты и шаблоны. Не так давно у нас появился материал для автолюбителей и владельцев мото - оригинальные и неоригинальные каталоги запчастей, книги и журналы по ремонту и обслуживанию, видеоуроки, статьи по чип тюнингу, прошивкам. Процедура получения контента элементарная, достаточно просто скачать торрент файл и добавить его в загрузку в вашем торрент клиенте. Если у вас нет специального торрент клиента, вы можете его скачать у нас.