[iPad] Мюнхен / Munich (Стивен Спилберг / Steven Spielberg ) [2005, США, Триллер, драма, история, BDRip, SD (576p)] DUB + Original + sub (rus, eng) 

Цитировать
Мюнхен / Munich
«В 1972 году весь мир наблюдал, как 11 израильских атлетов были убиты во время Олимпийских Игр в Мюнхене. Это история о том, что случилось потом...»
7.404 / 10 7.60 / 10
- Год выпуска: 2005
Страна: США
Жанр: Триллер, драма, история
Продолжительность: 02:43:49
Перевод: Дублированный (Лицензия)
Оригинальная аудиодорожка: Есть
Cубтитры: Русские форсированные, Русские, Английские
Режиссёр: Стивен Спилберг
Сценарий: Тони Кушнер, Эрик Рот, Джордж Йонас
Продюсер: Кэтлин Кеннеди, Бэрри Мендел, Стивен Спилберг
Оператор: Януш Камински
Композитор: Джон Уильямс
Художник: Рик Картер, Род МакЛин, Джоанна Джонстон
Монтаж: Майкл Кан
В ролях: Эрик Бана, Дэниэл Крэйг, Киран Хайндс, Матьё Кассовиц, Ханнс Цишлер, Айелет Зурер, Джеффри Раш, Гила Альмагор, Микаэль Лонсдаль, Матьё Амальрик
Бюджет: $70 000 000
Сборы в США: $47 403 685
Сборы в мире: + $82 955 226 = $130 358 911
Сборы в России: $31 055 873
Мировая премьера: 23 декабря 2005
Премьера (РФ): 16 февраля 2006, «UIP»
Релиз на DVD: 15 декабря 2011, «Новый Диск»
Описание: Агент МОССАД и его группа выслеживает и методично уничтожает палестинских террористов, повинных в смерти израильских спортсменов в аэропорту Мюнхена после Олимпиады 1972 года…-Качество исходника: BDRemux (NNMClub)
Качество: BDRip
Тип: SD (576p)
Контейнер: M4V
Видео: H.264, 1024x432, 2.40:1, 2 200 Kbps, 23.976 (24000/1001) fps
Аудио 1: Русский/Дублированный (Лицензия), AAC LC / 2.0 / 128 Kbps / 48.0 KHz
Аудио 2: Английский/Оригинальная дорожка , AAC LC / 2.0 / 128 Kbps / 48.0 KHz
Субтитры 1: Русские форсированные
Субтитры 2: Русские полные
Субтитры 3: Английские полные
-

iTunes Meta Tags

Sort Name: Munich
XID: Apple:vendor_id:2005-81287
contentID: 766360359
Copyright: © 2005 Universal Studios. All Rights Reserved.
Screenwriters: Тони Кушнер, Эрик Рот, Джордж Йонас
Producers: Кэтлин Кеннеди, Бэрри Мендел, Стивен Спилберг
Director: Стивен Спилберг
Cast: Эрик Бана, Дэниэл Крэйг, Киран Хайндс, Матьё Кассовиц, Ханнс Цишлер, Айелет Зурер, Джеффри Раш, Гила Альмагор, Микаэль Лонсдаль, Матьё Амальрик, Юрий Брежнев, Никита Прозоровский, Александр Клюквин, Сергей Бурунов, Алексей Борзунов
Studio: Universal Pictures
Rating: 5
Long Description: Агент МОССАД и его группа выслеживает и методично уничтожает палестинских террористов, повинных в смерти израильских спортсменов в аэропорту Мюнхена после Олимпиады 1972 года...
Description: Агент МОССАД и его группа выслеживает и методично уничтожает палестинских террористов, повинных в смерти израильских спортсменов в аэропорту Мюнхена после Олимпиады 1972 года...
Release Date: 2005-12-23T08:00:00Z
Genre: Drama
Artist: Steven Spielberg
Name: Munich

MediaInfo

General
Complete name                            : /Users/imac/HandBrake/Mjunhen.(SD).(pk).m4v
Format                                   : MPEG-4
Codec ID                                 : M4V  (M4V /M4A /mp42/isom)
File size                                : 2.81 GiB
Duration                                 : 2h 43mn
Overall bit rate mode                    : Variable
Overall bit rate                         : 2 459 Kbps
Movie name                               : Munich
Performer                                : Steven Spielberg
Director                                 : Стивен Спилберг
Actor                                    : Эрик Бана / Дэниэл Крэйг / Киран Хайндс / Матьё Кассовиц / Ханнс Цишлер / Айелет Зурер / Джеффри Раш / Гила Альмагор / Микаэль Лонсдаль / Матьё Амальрик / Юрий Брежнев / Никита Прозоровский / Александр Клюквин / Сергей Бурунов / Алексей Борзунов
Screenplay by                            : Тони Кушнер / Эрик Рот / Джордж Йонас
Producer                                 : Кэтлин Кеннеди / Бэрри Мендел / Стивен Спилберг
Production studio                        : Universal Pictures
Genre                                    : Drama
ContentType                              : Short Film
Description                              : Агент МОССАД и его группа выслеживает и методично уничтожает палестинских террористов, повинных в смерти израильских спортсменов в аэропорту Мюнхена после Олимпиады 1972 года...
Recorded date                            : UTC 2005-12-23 08:00:00
Encoded date                             : UTC 2018-10-04 11:44:49
Tagged date                              : UTC 2018-10-04 11:49:53
Copyright                                : © 2005 Universal Studios. All Rights Reserved.
Cover                                    : Yes
Rating                                   : None
Title/Sort                               : Munich
LongDescription                          : Агент МОССАД и его группа выслеживает и методично уничтожает палестинских террористов, повинных в смерти израильских спортсменов в аэропорту Мюнхена после Олимпиады 1972 года...
AppleStoreCatalogID                      : 766360359
Vendor                                   : Apple:vendor_id:2005-81287
ContentRating                            : mpaa|R|400|
Video #1
ID                                       : 1
Format                                   : AVC
Format/Info                              : Advanced Video Codec
Format profile                           : High@L3.1
Format settings                          : CABAC / 9 Ref Frames
Format settings, CABAC                   : Yes
Format settings, ReFrames                : 9 frames
Codec ID                                 : avc1
Codec ID/Info                            : Advanced Video Coding
Duration                                 : 2h 43mn
Bit rate                                 : 2 200 Kbps
Width                                    : 1 024 pixels
Height                                   : 432 pixels
Display aspect ratio                     : 2.40:1
Frame rate mode                          : Variable
Frame rate                               : 23.976 (24000/1001) fps
Minimum frame rate                       : 23.810 fps
Maximum frame rate                       : 24.390 fps
Color space                              : YUV
Chroma subsampling                       : 4:2:0
Bit depth                                : 8 bits
Scan type                                : Progressive
Bits/(Pixel*Frame)                       : 0.207
Stream size                              : 2.52 GiB (89%)
Title                                    : Main Program
Writing library                          : x264 core 155 r2901 7d0ff22
Encoding settings                        : cabac=1 / ref=9 / deblock=1:0:0 / analyse=0x3:0x113 / me=umh / subme=9 / psy=1 / psy_rd=1.00:0.00 / mixed_ref=1 / me_range=32 / chroma_me=1 / trellis=1 / 8x8dct=1 / cqm=0 / deadzone=21,11 / fast_pskip=1 / chroma_qp_offset=-2 / threads=13 / lookahead_threads=1 / sliced_threads=0 / nr=0 / decimate=1 / interlaced=0 / bluray_compat=0 / constrained_intra=0 / bframes=6 / b_pyramid=2 / b_adapt=2 / b_bias=0 / direct=1 / weightb=1 / open_gop=0 / weightp=2 / keyint=240 / keyint_min=24 / scenecut=40 / intra_refresh=0 / rc_lookahead=40 / rc=2pass / mbtree=1 / bitrate=2200 / ratetol=1.0 / qcomp=0.60 / qpmin=0 / qpmax=69 / qpstep=4 / cplxblur=20.0 / qblur=0.5 / ip_ratio=1.40 / aq=1:1.00
Language                                 : English
Encoded date                             : UTC 2018-10-04 11:44:49
Tagged date                              : UTC 2018-10-04 11:45:03
Color range                              : Limited
Color primaries                          : BT.709
Transfer characteristics                 : BT.709
Matrix coefficients                      : BT.709
Menus                                    : 7,8
Codec configuration box                  : avcC
Video #2
ID                                       : 8
Format                                   : JPEG
Codec ID                                 : jpeg
Duration                                 : 2h 43mn
Bit rate mode                            : Variable
Bit rate                                 : 611 bps
Width                                    : 640 pixels
Height                                   : 270 pixels
Display aspect ratio                     : 2.40:1
Frame rate mode                          : Variable
Frame rate                               : 0.002 fps
Minimum frame rate                       : 0.001 fps
Maximum frame rate                       : 0.004 fps
Color space                              : YUV
Chroma subsampling                       : 4:2:0
Bit depth                                : 8 bits
Compression mode                         : Lossy
Bits/(Pixel*Frame)                       : 1.768
Stream size                              : 746 KiB (0%)
Title                                    : Chapter Images
Language                                 : English
Default                                  : No
Encoded date                             : UTC 2018-10-04 11:45:08
Tagged date                              : UTC 2018-10-04 11:45:09
Menu For                                 : 1
ColorSpace_ICC                           : RGB
Audio #1
ID                                       : 2
Format                                   : AAC LC
Format/Info                              : Advanced Audio Codec Low Complexity
Codec ID                                 : mp4a-40-2
Duration                                 : 2h 43mn
Bit rate mode                            : Variable
Bit rate                                 : 126 Kbps
Maximum bit rate                         : 214 Kbps
Channel(s)                               : 2 channels
Channel layout                           : L R
Sampling rate                            : 48.0 KHz
Frame rate                               : 46.875 fps (1024 SPF)
Compression mode                         : Lossy
Stream size                              : 148 MiB (5%)
Title                                    : Russian Stereo
Language                                 : Russian
Default                                  : Yes
Alternate group                          : 1
Encoded date                             : UTC 2018-10-04 11:44:49
Tagged date                              : UTC 2018-10-04 11:45:03
Subtitles                                : 4,5
Audio #2
ID                                       : 3
Format                                   : AAC LC
Format/Info                              : Advanced Audio Codec Low Complexity
Codec ID                                 : mp4a-40-2
Duration                                 : 2h 43mn
Bit rate mode                            : Variable
Bit rate                                 : 124 Kbps
Maximum bit rate                         : 213 Kbps
Channel(s)                               : 2 channels
Channel layout                           : L R
Sampling rate                            : 48.0 KHz
Frame rate                               : 46.875 fps (1024 SPF)
Compression mode                         : Lossy
Stream size                              : 145 MiB (5%)
Title                                    : English Stereo
Language                                 : English
Default                                  : No
Alternate group                          : 1
Encoded date                             : UTC 2018-10-04 11:44:49
Tagged date                              : UTC 2018-10-04 11:45:03
Text #1
ID                                       : 4
Format                                   : Timed Text
Muxing mode                              : sbtl
Codec ID                                 : tx3g
Duration                                 : 2h 36mn
Bit rate mode                            : Variable
Bit rate                                 : 3 bps
Stream size                              : 3.32 KiB (0%)
Title                                    : Russian forced
Language                                 : Russian
Default                                  : Yes
Forced                                   : Yes
Alternate group                          : 2
Encoded date                             : UTC 2018-10-04 11:44:49
Tagged date                              : UTC 2018-10-04 11:45:03
Subtitles For                            : 2
Full Alternative                         : 5
Text #2
ID                                       : 5
Format                                   : Timed Text
Muxing mode                              : sbtl
Codec ID                                 : tx3g
Duration                                 : 2h 36mn
Bit rate mode                            : Variable
Bit rate                                 : 96 bps
Stream size                              : 110 KiB (0%)
Title                                    : Russian full
Language                                 : Russian
Default                                  : No
Forced                                   : No
Alternate group                          : 2
Encoded date                             : UTC 2018-10-04 11:44:49
Tagged date                              : UTC 2018-10-04 11:45:03
Subtitles For                            : 2
Forced Alternative                       : 4
Text #3
ID                                       : 6
Format                                   : Timed Text
Muxing mode                              : sbtl
Codec ID                                 : tx3g
Duration                                 : 2h 35mn
Bit rate mode                            : Variable
Bit rate                                 : 55 bps
Stream size                              : 62.8 KiB (0%)
Title                                    : English full
Language                                 : English
Default                                  : No
Forced                                   : No
Alternate group                          : 2
Encoded date                             : UTC 2018-10-04 11:44:49
Tagged date                              : UTC 2018-10-04 11:45:03
Menu #1
00:00:00.000                             : 00:00:00.000
00:09:27.484                             : 00:09:27.484
00:22:58.085                             : 00:22:58.085
00:33:29.925                             : 00:33:29.841
00:41:27.485                             : 00:41:27.485
00:47:25.676                             : 00:47:25.676
00:58:30.382                             : 00:58:30.382
01:07:28.336                             : 01:07:28.336
01:16:26.290                             : 01:16:26.207
01:25:08.395                             : 01:25:08.186
01:34:04.222                             : 01:34:04.138
01:44:59.543                             : 01:44:59.502
01:54:21.938                             : 01:54:21.897
01:59:06.139                             : 01:59:06.056
02:06:47.934                             : 02:06:47.934
02:12:18.681                             : 02:12:18.681
02:19:40.664                             : 02:19:40.622
02:27:38.683                             : 02:27:38.516
02:32:27.138                             : 02:32:27.138
02:36:27.378                             : 02:36:27.336
Menu #2
ID                                       : 7
Codec ID                                 : text
Duration                                 : 2h 43mn
Language                                 : English
Encoded date                             : UTC 2018-10-04 11:45:03
Tagged date                              : UTC 2018-10-04 11:45:03
Bit rate mode                            : CBR
Menu For                                 : 1
00:00:00.000                             : 00:00:00.000
00:09:27.484                             : 00:09:27.484
00:22:58.085                             : 00:22:58.085
00:33:29.925                             : 00:33:29.841
00:41:27.485                             : 00:41:27.485
00:47:25.676                             : 00:47:25.676
00:58:30.382                             : 00:58:30.382
01:07:28.336                             : 01:07:28.336
01:16:26.290                             : 01:16:26.207
01:25:08.395                             : 01:25:08.186
01:34:04.222                             : 01:34:04.138
01:44:59.543                             : 01:44:59.502
01:54:21.938                             : 01:54:21.897
01:59:06.139                             : 01:59:06.056
02:06:47.934                             : 02:06:47.934
02:12:18.681                             : 02:12:18.681
02:19:40.664                             : 02:19:40.622
02:27:38.683                             : 02:27:38.516
02:32:27.138                             : 02:32:27.138
02:36:27.378                             : 02:36:27.336

x264 лог

x264 [info]: frame I:1507  Avg QP:15.63  size: 78573
x264 [info]: frame P:54773 Avg QP:18.35  size: 23987
x264 [info]: frame B:179404 Avg QP:21.12  size:  7084
x264 [info]: consecutive B-frames:  2.7%  3.5% 10.8% 19.5% 14.7% 43.5%  5.3%
x264 [info]: mb I  I16..4:  9.3% 65.2% 25.5%
x264 [info]: mb P  I16..4:  1.3%  9.5%  2.3%  P16..4: 36.2% 25.9% 16.1%  0.0%  0.0%    skip: 8.7%
x264 [info]: mb B  I16..4:  0.1%  1.3%  0.2%  B16..8: 42.1% 10.2%  3.1%  direct: 4.4%  skip:38.5%  L0:44.2% L1:45.6% BI:10.2%
x264 [info]: 8x8 transform intra:73.2% inter:64.9%
x264 [info]: coded y,uvDC,uvAC intra: 88.7% 73.5% 38.1% inter: 27.7% 19.1% 1.5%
x264 [info]: i16 v,h,dc,p: 33% 19% 11% 37%
x264 [info]: i8 v,h,dc,ddl,ddr,vr,hd,vl,hu:  9%  7%  5% 11% 15% 15% 14% 12% 12%
x264 [info]: i4 v,h,dc,ddl,ddr,vr,hd,vl,hu:  9%  8%  3% 10% 15% 15% 14% 12% 14%
x264 [info]: i8c dc,h,v,p: 36% 27% 21% 15%
x264 [info]: Weighted P-Frames: Y:2.8% UV:0.9%
x264 [info]: ref P L0: 50.9% 12.3% 15.7%  6.0%  4.9%  3.5%  3.1%  1.7%  1.8%  0.1%  0.0%
x264 [info]: ref B L0: 76.9% 10.7%  5.2%  2.6%  1.9%  1.5%  0.9%  0.3%
x264 [info]: ref B L1: 94.8%  5.2%
x264 [info]: kb/s:2199.86

Скриншоты

-

Релиз подготовлен для просмотра на Apple TV, iPad, iPhone, iPod Touch.
Для просмотра данного релиза на компьютере с ОС Windows рекомендуется использовать VLC media player
Вы не можете начинать темы
Вы не можете отвечать на сообщения
Вы не можете редактировать свои сообщения
Вы не можете удалять свои сообщения
Вы не можете голосовать в опросах
Вы не можете прикреплять файлы к сообщениям
Вы можете скачивать файлы
!ВНИМАНИЕ!

Сайт не предоставляет электронные версии произведений, а занимается лишь коллекционированием и каталогизацией ссылок, присылаемых и публикуемых на форуме нашими читателями. Если вы являетесь правообладателем какого-либо представленного материала и не желаете, чтобы ссылка на него находилась в нашем каталоге, свяжитесь с нами, и мы незамедлительно удалим ее. Файлы для обмена на трекере предоставлены пользователями сайта, и администрация не несет ответственности за их содержание. Просьба не заливать файлы, защищенные авторскими правами, а также файлы нелегального содержания!

Искали программы, игры, дополнения, музыка mp3, аниме, аудио книги, журналы? Добро пожаловать на свободный торрент трекер Torrents, у нас можно скачать бесплатно, без смс и регистрации и прочих ограничений лучшие, отборные сборки программ, игр. Скачать торрентом не составит труда даже не опытному пользователю. Раздачи ежедневно обновляются, только лучшие и качественные раздачи, подробные описания и скриншоты. Огромная коллекция программ для работы со звуком, графикой, дизайном, а так же множество плагинов и инструментов к ним с подробной инструкцией и рекомендациями. Прошивки для навигаторов, карты. Разнообразные игры, для Windows, Linux. В коллекцие есть и старые игры любых жанров, Rpg, Action, Shooter, strategy Множество дополнений, модификаций, сценариев для популярных игр в жанре экш, рпг, гонки, стратегии, логические игры. Множество аддонов и сценариев для Microsoft Flight Simulator Большая коллекция книг, учебников. Если нет возможности купить печатное издание - смело скачивайте цифровую версию книги или, быть может, журнала. Не любите читать - можно загрузить бесплатно аудикнигу. Для веб дизайнеров и программистов так же найдется множество специализированного софта, таких как: редакторы с подсветкой, среды программирования, компоненты, системы управления базами данных, разнообразные скрипты и шаблоны. Не так давно у нас появился материал для автолюбителей и владельцев мото - оригинальные и неоригинальные каталоги запчастей, книги и журналы по ремонту и обслуживанию, видеоуроки, статьи по чип тюнингу, прошивкам. Процедура получения контента элементарная, достаточно просто скачать торрент файл и добавить его в загрузку в вашем торрент клиенте. Если у вас нет специального торрент клиента, вы можете его скачать у нас.