Убийца 2. Против всех / Sicario 2: Soldado (Стефано Соллима / Stefano Sollima ) [2018, США, Мексика , Боевик, триллер, драма, криминал, BDRip, SD (480p)] DUB + Original + sub (rus, eng) 

Цитировать
Убийца 2. Против всех / Sicario 2: Soldado
«Правила мертвы»
7.111 / 10 7.20 / 10
- Год выпуска: 2018
Страна: США, Мексика
Жанр: Боевик, триллер, драма, криминал
Продолжительность: 02:02:24
Перевод: Дублированный (iTunes)
Оригинальная аудиодорожка: Есть
Cубтитры: Английские форсированные, Русские, Английские
Режиссёр: Стефано Соллима
Сценарий: Тейлор Шеридан
Продюсер: Бэзил Иваник, Эрика Ли, Тэд Лакинбилл
Оператор: Дариуш Вольски
Композитор: Хильдур Гуднадоттир
Художник: Кевин Кэвэно, Мариса Франц, Карлос Й. Хакес
Монтаж: Мэттью Ньюман
В ролях: Бенисио Дель Торо, Джош Бролин, Изабела Монер, Джеффри Донован, Кэтрин Кинер, Мануэль Рульфо, Мэттью Модайн, Шей Уигэм, Элиас Гарза, Ховард Фергюсон мл.
Бюджет: $35 000 000
Сборы в США: $50 072 235
Сборы в мире: + $23 231 254 = $73 303 489
Сборы в России: $386 985
Мировая премьера: 27 июня 2018
Премьера (РФ): 28 июня 2018, «Централ Партнершип»
Цифровой релиз: 2 октября 2018, «Централ Партнершип»
Описание: Обстановка на американо-мексиканской границе накаляется, когда наркокартели начинают переправлять в США террористов. Чтобы дать им отпор федеральный агент Мэтт Грейвер вынужден вновь объединиться с не самым надежным напарником — Алехандро.-Качество исходника: Blu-Ray (BlueBird)
Качество: BDRip
Тип: SD (480p)
Контейнер: M4V
Видео: H.264, 640x356 анаморф 852x356, 2.40:1, 1 300 Kbps, 23.976 (24000/1001) fps
Аудио 1: Русский/Дублированный (iTunes), AAC LC / 2.0 / 128 Kbps / 48.0 KHz
Аудио 2: Английский/Оригинальная дорожка , AAC LC / 2.0 / 128 Kbps / 48.0 KHz
Субтитры 1: Английские форсированные
Субтитры 2: Русские полные
Субтитры 3: Английские полные
-

iTunes Meta Tags

Sort Name: Sicario: Day of the Soldado
XID: Apple:vendor_id:2018-938461
contentID: 1396966588
Copyright: © 2018 Soldado Movie, LLC. All Rights Reserved.
Screenwriters: Тейлор Шеридан
Producers: Бэзил Иваник, Эрика Ли, Тэд Лакинбилл
Director: Стефано Соллима
Cast: Бенисио Дель Торо, Джош Бролин, Изабела Монер, Джеффри Донован, Кэтрин Кинер, Мануэль Рульфо, Мэттью Модайн, Шей Уигэм, Элиас Гарза, Ховард Фергюсон мл.
Studio: Black Label Media; RAI CINEMA
Rating Annotation: Rated R for strong violence, bloody images, and language.
Rating: 5
Long Description: Обстановка на американо-мексиканской границе накаляется, когда наркокартели начинают переправлять в США террористов. Чтобы дать им отпор федеральный агент Мэтт Грейвер вынужден вновь объединиться с не самым надежным напарником - Алехандро.
Description: Обстановка на американо-мексиканской границе накаляется, когда наркокартели начинают переправлять в США террористов. Чтобы дать им отпор федеральный агент Мэтт Грейвер вынужден вновь объединиться с не самым надежным напарником - Алехандро.
Release Date: 2018-06-27T08:00:00Z
Genre: Action & Adventure
Artist: Stefano Sollima
Name: Sicario: Day of the Soldado

MediaInfo

General
Complete name                            : /Users/imac/HandBrake/Sicario.Day.of.the.Soldado.(480p).(pk).m4v
Format                                   : MPEG-4
Codec ID                                 : M4V  (M4V /M4A /mp42/isom)
File size                                : 1.33 GiB
Duration                                 : 2h 2mn
Overall bit rate mode                    : Variable
Overall bit rate                         : 1 559 Kbps
Movie name                               : Sicario: Day of the Soldado
Performer                                : Stefano Sollima
Director                                 : Стефано Соллима
Actor                                    : Бенисио Дель Торо / Джош Бролин / Изабела Монер / Джеффри Донован / Кэтрин Кинер / Мануэль Рульфо / Мэттью Модайн / Шей Уигэм / Элиас Гарза / Ховард Фергюсон мл.
Screenplay by                            : Тейлор Шеридан
Producer                                 : Бэзил Иваник / Эрика Ли / Тэд Лакинбилл
Production studio                        : Black Label Media; RAI CINEMA
Genre                                    : Action & Adventure
ContentType                              : Short Film
Description                              : Обстановка на американо-мексиканской границе накаляется, когда наркокартели начинают переправлять в США террористов. Чтобы дать им отпор федеральный агент Мэтт Грейвер вынужден вновь объединиться с не самым надежным напарником - Алехандро.
Recorded date                            : UTC 2018-06-27 08:00:00
Encoded date                             : UTC 2018-10-03 23:05:15
Tagged date                              : UTC 2018-10-03 23:06:19
Copyright                                : © 2018 Soldado Movie, LLC. All Rights Reserved.
Cover                                    : Yes
Rating                                   : None
Title/Sort                               : Sicario: Day of the Soldado
LongDescription                          : Обстановка на американо-мексиканской границе накаляется, когда наркокартели начинают переправлять в США террористов. Чтобы дать им отпор федеральный агент Мэтт Грейвер вынужден вновь объединиться с не самым надежным напарником - Алехандро.
AppleStoreCatalogID                      : 1396966588
Vendor                                   : Apple:vendor_id:2018-938461
ContentRating                            : mpaa|R|400|Rated R for strong violence, bloody images, and language.
Video #1
ID                                       : 1
Format                                   : AVC
Format/Info                              : Advanced Video Codec
Format profile                           : Baseline@L3
Format settings                          : 2 Ref Frames
Format settings, CABAC                   : No
Format settings, ReFrames                : 2 frames
Codec ID                                 : avc1
Codec ID/Info                            : Advanced Video Coding
Duration                                 : 2h 2mn
Bit rate                                 : 1 300 Kbps
Width                                    : 640 pixels
Height                                   : 356 pixels
Display aspect ratio                     : 2.40:1
Frame rate mode                          : Variable
Frame rate                               : 23.976 (24000/1001) fps
Minimum frame rate                       : 23.974 fps
Maximum frame rate                       : 23.981 fps
Color space                              : YUV
Chroma subsampling                       : 4:2:0
Bit depth                                : 8 bits
Scan type                                : Progressive
Bits/(Pixel*Frame)                       : 0.238
Stream size                              : 1.11 GiB (83%)
Title                                    : Main Program
Writing library                          : x264 core 155 r2901 7d0ff22
Encoding settings                        : cabac=0 / ref=2 / deblock=1:0:0 / analyse=0x1:0x111 / me=umh / subme=6 / psy=1 / psy_rd=1.00:0.00 / mixed_ref=1 / me_range=16 / chroma_me=1 / trellis=0 / 8x8dct=0 / cqm=0 / deadzone=21,11 / fast_pskip=1 / chroma_qp_offset=-2 / threads=11 / lookahead_threads=1 / sliced_threads=0 / nr=0 / decimate=1 / interlaced=0 / bluray_compat=0 / constrained_intra=0 / bframes=0 / weightp=0 / keyint=240 / keyint_min=24 / scenecut=40 / intra_refresh=0 / rc_lookahead=40 / rc=2pass / mbtree=1 / bitrate=1300 / ratetol=1.0 / qcomp=0.60 / qpmin=0 / qpmax=69 / qpstep=4 / cplxblur=20.0 / qblur=0.5 / vbv_maxrate=5000 / vbv_bufsize=5000 / nal_hrd=none / filler=0 / ip_ratio=1.40 / aq=1:1.00
Language                                 : English
Encoded date                             : UTC 2018-10-03 23:05:15
Tagged date                              : UTC 2018-10-03 23:05:21
Color range                              : Limited
Color primaries                          : BT.709
Transfer characteristics                 : BT.709
Matrix coefficients                      : BT.709
Menus                                    : 7,8
Codec configuration box                  : avcC
Video #2
ID                                       : 8
Format                                   : JPEG
Codec ID                                 : jpeg
Duration                                 : 2h 2mn
Bit rate mode                            : Variable
Bit rate                                 : 601 bps
Width                                    : 640 pixels
Height                                   : 267 pixels
Display aspect ratio                     : 2.40:1
Frame rate mode                          : Variable
Frame rate                               : 0.002 fps
Minimum frame rate                       : 0.001 fps
Maximum frame rate                       : 0.004 fps
Color space                              : YUV
Chroma subsampling                       : 4:2:0
Bit depth                                : 8 bits
Compression mode                         : Lossy
Bits/(Pixel*Frame)                       : 1.759
Stream size                              : 587 KiB (0%)
Title                                    : Chapter Images
Language                                 : English
Default                                  : No
Encoded date                             : UTC 2018-10-03 23:05:27
Tagged date                              : UTC 2018-10-03 23:05:27
Menu For                                 : 1
ColorSpace_ICC                           : RGB
Audio #1
ID                                       : 2
Format                                   : AAC LC
Format/Info                              : Advanced Audio Codec Low Complexity
Codec ID                                 : mp4a-40-2
Duration                                 : 2h 2mn
Source duration                          : 2h 2mn
Bit rate mode                            : Variable
Bit rate                                 : 127 Kbps
Maximum bit rate                         : 205 Kbps
Channel(s)                               : 2 channels
Channel layout                           : L R
Sampling rate                            : 48.0 KHz
Frame rate                               : 46.875 fps (1024 SPF)
Compression mode                         : Lossy
Stream size                              : 111 MiB (8%)
Source stream size                       : 111 MiB (8%)
Title                                    : Russian Stereo
Language                                 : Russian
Default                                  : Yes
Alternate group                          : 1
Encoded date                             : UTC 2018-10-03 23:05:15
Tagged date                              : UTC 2018-10-03 23:05:24
Audio #2
ID                                       : 3
Format                                   : AAC LC
Format/Info                              : Advanced Audio Codec Low Complexity
Codec ID                                 : mp4a-40-2
Duration                                 : 2h 2mn
Source duration                          : 2h 2mn
Bit rate mode                            : Variable
Bit rate                                 : 126 Kbps
Maximum bit rate                         : 191 Kbps
Channel(s)                               : 2 channels
Channel layout                           : L R
Sampling rate                            : 48.0 KHz
Frame rate                               : 46.875 fps (1024 SPF)
Compression mode                         : Lossy
Stream size                              : 110 MiB (8%)
Source stream size                       : 110 MiB (8%)
Title                                    : English Stereo
Language                                 : English
Default                                  : No
Alternate group                          : 1
Encoded date                             : UTC 2018-10-03 23:05:15
Tagged date                              : UTC 2018-10-03 23:05:24
Subtitles                                : 4,6
Text #1
ID                                       : 4
Format                                   : Timed Text
Muxing mode                              : sbtl
Codec ID                                 : tx3g
Duration                                 : 1h 38mn
Bit rate mode                            : Variable
Bit rate                                 : 8 bps
Stream size                              : 5.44 KiB (0%)
Title                                    : English forced
Language                                 : English
Default                                  : Yes
Forced                                   : Yes
Alternate group                          : 2
Encoded date                             : UTC 2018-10-03 23:05:15
Tagged date                              : UTC 2018-10-03 23:05:23
Subtitles For                            : 3
Full Alternative                         : 6
Text #2
ID                                       : 5
Format                                   : Timed Text
Muxing mode                              : sbtl
Codec ID                                 : tx3g
Duration                                 : 1h 54mn
Bit rate mode                            : Variable
Bit rate                                 : 58 bps
Stream size                              : 48.7 KiB (0%)
Title                                    : Russian full
Language                                 : Russian
Default                                  : No
Forced                                   : No
Alternate group                          : 2
Encoded date                             : UTC 2018-10-03 23:05:15
Tagged date                              : UTC 2018-10-03 23:05:24
Text #3
ID                                       : 6
Format                                   : Timed Text
Muxing mode                              : sbtl
Codec ID                                 : tx3g
Duration                                 : 1h 54mn
Bit rate mode                            : Variable
Bit rate                                 : 36 bps
Stream size                              : 30.4 KiB (0%)
Title                                    : English full
Language                                 : English
Default                                  : No
Forced                                   : No
Alternate group                          : 2
Encoded date                             : UTC 2018-10-03 23:05:15
Tagged date                              : UTC 2018-10-03 23:05:24
Subtitles For                            : 3
Forced Alternative                       : 4
Menu #1
00:00:00.000                             : Chapter 1
00:06:38.189                             : Chapter 2
00:14:45.593                             : Chapter 4
00:18:48.502                             : Chapter 6
00:27:08.335                             : Chapter 7
00:34:08.964                             : Chapter 8
00:42:28.671                             : Chapter 10
00:51:10.442                             : Chapter 11
01:00:58.071                             : Chapter 13
01:09:19.572                             : Chapter 15
01:14:26.796                             : Chapter 17
01:23:24.958                             : Chapter 19
01:28:41.358                             : Chapter 21
01:35:38.900                             : Chapter 22
01:41:44.348                             : Chapter 24
01:46:15.494                             : Chapter 26
Menu #2
ID                                       : 7
Codec ID                                 : text
Duration                                 : 2h 2mn
Language                                 : English
Encoded date                             : UTC 2018-10-03 23:05:24
Tagged date                              : UTC 2018-10-03 23:05:24
Menu For                                 : 1
00:00:00.000                             : Chapter 1
00:06:38.189                             : Chapter 2
00:14:45.593                             : Chapter 4
00:18:48.502                             : Chapter 6
00:27:08.335                             : Chapter 7
00:34:08.964                             : Chapter 8
00:42:28.671                             : Chapter 10
00:51:10.442                             : Chapter 11
01:00:58.071                             : Chapter 13
01:09:19.572                             : Chapter 15
01:14:26.796                             : Chapter 17
01:23:24.958                             : Chapter 19
01:28:41.358                             : Chapter 21
01:35:38.900                             : Chapter 22
01:41:44.348                             : Chapter 24
01:46:15.494                             : Chapter 26
Bit rate mode                            : VBR

x264 лог

x264 [info]: frame I:1847  Avg QP:15.18  size: 29828
x264 [info]: frame P:174240 Avg QP:17.48  size:  6523
x264 [info]: mb I  I16..4: 29.1%  0.0% 70.9%
x264 [info]: mb P  I16..4:  0.7%  0.0%  2.0%  P16..4: 42.6% 19.4%  8.3%  0.0%  0.0%    skip:27.1%
x264 [info]: coded y,uvDC,uvAC intra: 64.2% 72.5% 53.2% inter: 24.6% 16.1% 5.1%
x264 [info]: i16 v,h,dc,p: 50% 15%  9% 27%
x264 [info]: i4 v,h,dc,ddl,ddr,vr,hd,vl,hu: 38% 13% 14%  5%  6%  7%  6%  6%  5%
x264 [info]: i8c dc,h,v,p: 52% 16% 25%  7%
x264 [info]: ref P L0: 70.6% 29.4%
x264 [info]: kb/s:1298.05

Скриншоты

-

Релиз подготовлен для просмотра на Apple TV, iPad, iPhone, iPod Touch.
Для просмотра данного релиза на компьютере с ОС Windows рекомендуется использовать VLC media player
Вы не можете начинать темы
Вы не можете отвечать на сообщения
Вы не можете редактировать свои сообщения
Вы не можете удалять свои сообщения
Вы не можете голосовать в опросах
Вы не можете прикреплять файлы к сообщениям
Вы можете скачивать файлы
!ВНИМАНИЕ!

Сайт не предоставляет электронные версии произведений, а занимается лишь коллекционированием и каталогизацией ссылок, присылаемых и публикуемых на форуме нашими читателями. Если вы являетесь правообладателем какого-либо представленного материала и не желаете, чтобы ссылка на него находилась в нашем каталоге, свяжитесь с нами, и мы незамедлительно удалим ее. Файлы для обмена на трекере предоставлены пользователями сайта, и администрация не несет ответственности за их содержание. Просьба не заливать файлы, защищенные авторскими правами, а также файлы нелегального содержания!

Искали программы, игры, дополнения, музыка mp3, аниме, аудио книги, журналы? Добро пожаловать на свободный торрент трекер Torrents, у нас можно скачать бесплатно, без смс и регистрации и прочих ограничений лучшие, отборные сборки программ, игр. Скачать торрентом не составит труда даже не опытному пользователю. Раздачи ежедневно обновляются, только лучшие и качественные раздачи, подробные описания и скриншоты. Огромная коллекция программ для работы со звуком, графикой, дизайном, а так же множество плагинов и инструментов к ним с подробной инструкцией и рекомендациями. Прошивки для навигаторов, карты. Разнообразные игры, для Windows, Linux. В коллекцие есть и старые игры любых жанров, Rpg, Action, Shooter, strategy Множество дополнений, модификаций, сценариев для популярных игр в жанре экш, рпг, гонки, стратегии, логические игры. Множество аддонов и сценариев для Microsoft Flight Simulator Большая коллекция книг, учебников. Если нет возможности купить печатное издание - смело скачивайте цифровую версию книги или, быть может, журнала. Не любите читать - можно загрузить бесплатно аудикнигу. Для веб дизайнеров и программистов так же найдется множество специализированного софта, таких как: редакторы с подсветкой, среды программирования, компоненты, системы управления базами данных, разнообразные скрипты и шаблоны. Не так давно у нас появился материал для автолюбителей и владельцев мото - оригинальные и неоригинальные каталоги запчастей, книги и журналы по ремонту и обслуживанию, видеоуроки, статьи по чип тюнингу, прошивкам. Процедура получения контента элементарная, достаточно просто скачать торрент файл и добавить его в загрузку в вашем торрент клиенте. Если у вас нет специального торрент клиента, вы можете его скачать у нас.