[iPad] Точка отрыва / Action Point (Тим Киркби / Tim Kirkby ) [2018, США, Комедия, BDRip, SD (576p)] DUB + Original + sub (rus, eng) 

Цитировать
Точка отрыва / Action Point
-
5.545 / 10 4.90 / 10
- Год выпуска: 2018
Страна: США
Жанр: Комедия
Продолжительность: 01:24:37
Перевод: Дублированный (Лицензия)
Оригинальная аудиодорожка: Есть
Cубтитры: Русские, Английские
Режиссёр: Тим Киркби
Сценарий: Джон Альтшулер, Дэйв Крински, Джонни Ноксвил
Продюсер: Дерек Фреда, Билл Гербер, Джонни Ноксвил
Оператор: Майкл Снайман
Композитор: Дек Дикерсон, Эндрю Фелтенштейн, Джон Нау
Художник: Жуль Кук, Lauren Ernsdorf, Дж.П. Блэкмон
Монтаж: Мэтт Косински, Николас Монсур
В ролях: Джонни Ноксвил, Сьюзэн Йигли, Крис Понтиус, Бригитт Ланди-Пейн, Джонни Пембертон, Дэн Баккедаль, Элинор Вортингтон-Кокс, Дэна Шик, Джошуа Хувер, Коннер МакВикер
Бюджет: $19 000 000
Сборы в США: $5 059 608
Мировая премьера: 1 июня 2018
Релиз на DVD: 20 августа 2018, «НД Плэй»
Релиз на Blu-Ray: 20 августа 2018, «НД Плэй»
Описание: История безрассудного парня, который решает претворить в жизнь свой амбициозный проект. Собрав команду таких же сумасбродов, он конструирует и открывает совершенно особенный парк развлечений. К какой-то катастрофе это приведет?-Качество исходника: Blu-Ray (BlueBird)
Качество: BDRip
Тип: SD (576p)
Контейнер: M4V
Видео: H.264, 1024x432, 2.40:1, 2 200 Kbps, 23.976 (24000/1001) fps
Аудио 1: Русский/Дублированный (Лицензия), AAC / 2.0 / 128 Kbps / 48.0 KHz
Аудио 2: Английский/Оригинальная дорожка , AAC / 2.0 / 128 Kbps / 48.0 KHz
Субтитры 1: Русские полные
Субтитры 2: Английские полные
-

iTunes Meta Tags

Sort Name: Action Point
XID: Apple:vendor_id:2018-1035521
contentID: 1380299562
Copyright: © MMXVIII Paramount Pictures Corporation. All Rights Reserved.
Screenwriters: Джон Альтшулер, Дэйв Крински, Джонни Ноксвил
Producers: Дерек Фреда, Билл Гербер, Джонни Ноксвил
Director: Тим Киркби
Cast: Джонни Ноксвил, Сьюзэн Йигли, Крис Понтиус, Бригитт Ланди-Пейн, Джонни Пембертон, Дэн Баккедаль, Элинор Вортингтон-Кокс, Дэна Шик, Джошуа Хувер, Коннер МакВикер
Studio: Paramount
Rating Annotation: Rated R for crude sexual content, language, drug use, teen drinking, and brief graphic nudity.
Rating: 5
Long Description: История безрассудного парня, который решает претворить в жизнь свой амбициозный проект. Собрав команду таких же сумасбродов, он конструирует и открывает совершенно особенный парк развлечений. К какой-то катастрофе это приведет?
Description: История безрассудного парня, который решает претворить в жизнь свой амбициозный проект. Собрав команду таких же сумасбродов, он конструирует и открывает совершенно особенный парк развлечений. К какой-то катастрофе это приведет?
Release Date: 2018-06-01T08:00:00Z
Genre: Comedy
Artist: Tim Kirkby
Name: Action Point

MediaInfo

General
Complete name                            : /Users/imac/HandBrake/Action.Point.(SD).(pk).m4v
Format                                   : MPEG-4
Codec ID                                 : M4V  (M4V /M4A /mp42/isom)
File size                                : 1.45 GiB
Duration                                 : 1h 24mn
Overall bit rate mode                    : Variable
Overall bit rate                         : 2 457 Kbps
Movie name                               : Action Point
Performer                                : Tim Kirkby
Director                                 : Тим Киркби
Actor                                    : Джонни Ноксвил / Сьюзэн Йигли / Крис Понтиус / Бригитт Ланди-Пейн / Джонни Пембертон / Дэн Баккедаль / Элинор Вортингтон-Кокс / Дэна Шик / Джошуа Хувер / Коннер МакВикер
Screenplay by                            : Джон Альтшулер / Дэйв Крински / Джонни Ноксвил
Producer                                 : Дерек Фреда / Билл Гербер / Джонни Ноксвил
Production studio                        : Paramount
Genre                                    : Comedy
ContentType                              : Short Film
Description                              : История безрассудного парня, который решает претворить в жизнь свой амбициозный проект. Собрав команду таких же сумасбродов, он конструирует и открывает совершенно особенный парк развлечений. К какой-то катастрофе это приведет?
Recorded date                            : UTC 2018-06-01 08:00:00
Encoded date                             : UTC 2018-08-16 20:08:34
Tagged date                              : UTC 2018-08-16 20:10:36
Copyright                                : © MMXVIII Paramount Pictures Corporation. All Rights Reserved.
Cover                                    : Yes
Rating                                   : None
Title/Sort                               : Action Point
LongDescription                          : История безрассудного парня, который решает претворить в жизнь свой амбициозный проект. Собрав команду таких же сумасбродов, он конструирует и открывает совершенно особенный парк развлечений. К какой-то катастрофе это приведет?
AppleStoreCatalogID                      : 1380299562
Vendor                                   : Apple:vendor_id:2018-1035521
ContentRating                            : mpaa|R|400|Rated R for crude sexual content, language, drug use, teen drinking, and brief graphic nudity.
Video #1
ID                                       : 1
Format                                   : AVC
Format/Info                              : Advanced Video Codec
Format profile                           : High@L3.1
Format settings                          : CABAC / 9 Ref Frames
Format settings, CABAC                   : Yes
Format settings, ReFrames                : 9 frames
Codec ID                                 : avc1
Codec ID/Info                            : Advanced Video Coding
Duration                                 : 1h 24mn
Source duration                          : 1h 24mn
Bit rate                                 : 2 200 Kbps
Width                                    : 1 024 pixels
Height                                   : 432 pixels
Display aspect ratio                     : 2.40:1
Frame rate mode                          : Variable
Frame rate                               : 23.976 (24000/1001) fps
Minimum frame rate                       : 23.974 fps
Maximum frame rate                       : 23.981 fps
Color space                              : YUV
Chroma subsampling                       : 4:2:0
Bit depth                                : 8 bits
Scan type                                : Progressive
Bits/(Pixel*Frame)                       : 0.207
Stream size                              : 1.30 GiB (89%)
Source stream size                       : 1.30 GiB (89%)
Title                                    : Main Program
Writing library                          : x264 core 155 r2901 7d0ff22
Encoding settings                        : cabac=1 / ref=9 / deblock=1:0:0 / analyse=0x3:0x113 / me=umh / subme=9 / psy=1 / psy_rd=1.00:0.00 / mixed_ref=1 / me_range=32 / chroma_me=1 / trellis=1 / 8x8dct=1 / cqm=0 / deadzone=21,11 / fast_pskip=1 / chroma_qp_offset=-2 / threads=13 / lookahead_threads=1 / sliced_threads=0 / nr=0 / decimate=1 / interlaced=0 / bluray_compat=0 / constrained_intra=0 / bframes=6 / b_pyramid=2 / b_adapt=2 / b_bias=0 / direct=1 / weightb=1 / open_gop=0 / weightp=2 / keyint=240 / keyint_min=24 / scenecut=40 / intra_refresh=0 / rc_lookahead=40 / rc=2pass / mbtree=1 / bitrate=2200 / ratetol=1.0 / qcomp=0.60 / qpmin=0 / qpmax=69 / qpstep=4 / cplxblur=20.0 / qblur=0.5 / ip_ratio=1.40 / aq=1:1.00
Language                                 : English
Encoded date                             : UTC 2018-08-16 20:08:34
Tagged date                              : UTC 2018-08-16 20:08:39
Color range                              : Limited
Color primaries                          : BT.709
Transfer characteristics                 : BT.709
Matrix coefficients                      : BT.709
Menus                                    : 6,7
Video #2
ID                                       : 7
Format                                   : JPEG
Codec ID                                 : jpeg
Duration                                 : 1h 24mn
Bit rate mode                            : Variable
Bit rate                                 : 696 bps
Width                                    : 640 pixels
Height                                   : 270 pixels
Display aspect ratio                     : 2.40:1
Frame rate mode                          : Variable
Frame rate                               : 0.002 fps
Minimum frame rate                       : 0.001 fps
Maximum frame rate                       : 0.003 fps
Color space                              : YUV
Chroma subsampling                       : 4:2:0
Bit depth                                : 8 bits
Compression mode                         : Lossy
Bits/(Pixel*Frame)                       : 2.014
Stream size                              : 425 KiB (0%)
Title                                    : Chapter Images
Language                                 : English
Default                                  : No
Encoded date                             : UTC 2018-08-16 20:08:45
Tagged date                              : UTC 2018-08-16 20:08:45
Menu For                                 : 1
ColorSpace_ICC                           : RGB
Audio #1
ID                                       : 2
Format                                   : AAC
Format/Info                              : Advanced Audio Codec
Format profile                           : LC
Codec ID                                 : mp4a-40-2
Duration                                 : 1h 24mn
Source duration                          : 1h 24mn
Bit rate mode                            : Variable
Bit rate                                 : 124 Kbps
Maximum bit rate                         : 203 Kbps
Channel(s)                               : 2 channels
Channel positions                        : Front: L R
Sampling rate                            : 48.0 KHz
Frame rate                               : 46.875 fps (1024 SPF)
Compression mode                         : Lossy
Stream size                              : 75.0 MiB (5%)
Source stream size                       : 75.0 MiB (5%)
Title                                    : Russian Stereo
Language                                 : Russian
Default                                  : Yes
Alternate group                          : 1
Encoded date                             : UTC 2018-08-16 20:08:34
Tagged date                              : UTC 2018-08-16 20:08:42
Audio #2
ID                                       : 3
Format                                   : AAC
Format/Info                              : Advanced Audio Codec
Format profile                           : LC
Codec ID                                 : mp4a-40-2
Duration                                 : 1h 24mn
Source duration                          : 1h 24mn
Bit rate mode                            : Variable
Bit rate                                 : 124 Kbps
Maximum bit rate                         : 205 Kbps
Channel(s)                               : 2 channels
Channel positions                        : Front: L R
Sampling rate                            : 48.0 KHz
Frame rate                               : 46.875 fps (1024 SPF)
Compression mode                         : Lossy
Stream size                              : 75.1 MiB (5%)
Source stream size                       : 75.1 MiB (5%)
Title                                    : English Stereo
Language                                 : English
Default                                  : No
Alternate group                          : 1
Encoded date                             : UTC 2018-08-16 20:08:34
Tagged date                              : UTC 2018-08-16 20:08:42
Text #1
ID                                       : 4
Format                                   : Timed Text
Muxing mode                              : sbtl
Codec ID                                 : tx3g
Duration                                 : 1h 24mn
Bit rate mode                            : Variable
Bit rate                                 : 104 bps
Stream size                              : 64.2 KiB (0%)
Title                                    : Russian full
Language                                 : Russian
Default                                  : Yes
Forced                                   : No
Alternate group                          : 2
Encoded date                             : UTC 2018-08-16 20:08:34
Tagged date                              : UTC 2018-08-16 20:08:35
Text #2
ID                                       : 5
Format                                   : Timed Text
Muxing mode                              : sbtl
Codec ID                                 : tx3g
Duration                                 : 1h 18mn
Bit rate mode                            : Variable
Bit rate                                 : 73 bps
Stream size                              : 41.8 KiB (0%)
Title                                    : English full
Language                                 : English
Default                                  : No
Forced                                   : No
Alternate group                          : 2
Encoded date                             : UTC 2018-08-16 20:08:34
Tagged date                              : UTC 2018-08-16 20:08:35
Menu #1
00:00:00.000                             : 00:00:00.000
00:13:22.218                             : 00:13:22.218
00:20:20.219                             : 00:20:20.219
00:27:39.950                             : 00:27:39.867
00:36:38.446                             : 00:36:38.446
00:44:15.528                             : 00:44:15.528
00:51:59.408                             : 00:51:59.408
00:57:39.539                             : 00:57:39.539
01:05:17.038                             : 01:05:17.038
01:14:09.236                             : 01:14:09.236
Menu #2
ID                                       : 6
Codec ID                                 : text
Duration                                 : 1h 24mn
Language                                 : English
Encoded date                             : UTC 2018-08-16 20:08:42
Tagged date                              : UTC 2018-08-16 20:08:42
Bit rate mode                            : CBR
Menu For                                 : 1
00:00:00.000                             : 00:00:00.000
00:13:22.218                             : 00:13:22.218
00:20:20.219                             : 00:20:20.219
00:27:39.950                             : 00:27:39.867
00:36:38.446                             : 00:36:38.446
00:44:15.528                             : 00:44:15.528
00:51:59.408                             : 00:51:59.408
00:57:39.539                             : 00:57:39.539
01:05:17.038                             : 01:05:17.038
01:14:09.236                             : 01:14:09.236

x264 лог

x264 [info]: frame I:1162  Avg QP:15.47  size: 89915
x264 [info]: frame P:28642 Avg QP:18.60  size: 24980
x264 [info]: frame B:91944 Avg QP:21.62  size:  6258
x264 [info]: consecutive B-frames:  2.5%  2.9% 13.9% 23.8% 19.5% 30.8%  6.6%
x264 [info]: mb I  I16..4: 10.3% 63.9% 25.8%
x264 [info]: mb P  I16..4:  1.1%  8.6%  2.4%  P16..4: 34.7% 23.9% 15.7%  0.0%  0.0%    skip:13.6%
x264 [info]: mb B  I16..4:  0.1%  1.0%  0.3%  B16..8: 39.3%  9.2%  3.2%  direct: 3.9%  skip:43.1%  L0:44.8% L1:44.3% BI:10.9%
x264 [info]: 8x8 transform intra:70.1% inter:66.3%
x264 [info]: coded y,uvDC,uvAC intra: 89.7% 84.7% 58.6% inter: 26.0% 20.9% 3.3%
x264 [info]: i16 v,h,dc,p: 30% 17%  8% 45%
x264 [info]: i8 v,h,dc,ddl,ddr,vr,hd,vl,hu:  9%  8%  3% 11% 16% 15% 14% 12% 13%
x264 [info]: i4 v,h,dc,ddl,ddr,vr,hd,vl,hu:  8%  7%  2% 10% 16% 15% 15% 13% 14%
x264 [info]: i8c dc,h,v,p: 37% 24% 21% 18%
x264 [info]: Weighted P-Frames: Y:2.6% UV:1.3%
x264 [info]: ref P L0: 50.9% 13.9% 14.2%  5.5%  4.5%  3.7%  3.0%  2.2%  2.0%  0.1%  0.0%
x264 [info]: ref B L0: 77.8%  9.6%  5.1%  2.4%  1.8%  1.9%  1.0%  0.4%
x264 [info]: ref B L1: 95.4%  4.6%
x264 [info]: kb/s:2198.29

Скриншоты

-

Релиз подготовлен для просмотра на Apple TV, iPad, iPhone, iPod Touch.
Для просмотра данного релиза на компьютере с ОС Windows рекомендуется использовать VLC media player
Вы не можете начинать темы
Вы не можете отвечать на сообщения
Вы не можете редактировать свои сообщения
Вы не можете удалять свои сообщения
Вы не можете голосовать в опросах
Вы не можете прикреплять файлы к сообщениям
Вы можете скачивать файлы
!ВНИМАНИЕ!

Сайт не предоставляет электронные версии произведений, а занимается лишь коллекционированием и каталогизацией ссылок, присылаемых и публикуемых на форуме нашими читателями. Если вы являетесь правообладателем какого-либо представленного материала и не желаете, чтобы ссылка на него находилась в нашем каталоге, свяжитесь с нами, и мы незамедлительно удалим ее. Файлы для обмена на трекере предоставлены пользователями сайта, и администрация не несет ответственности за их содержание. Просьба не заливать файлы, защищенные авторскими правами, а также файлы нелегального содержания!

Искали программы, игры, дополнения, музыка mp3, аниме, аудио книги, журналы? Добро пожаловать на свободный торрент трекер Torrents, у нас можно скачать бесплатно, без смс и регистрации и прочих ограничений лучшие, отборные сборки программ, игр. Скачать торрентом не составит труда даже не опытному пользователю. Раздачи ежедневно обновляются, только лучшие и качественные раздачи, подробные описания и скриншоты. Огромная коллекция программ для работы со звуком, графикой, дизайном, а так же множество плагинов и инструментов к ним с подробной инструкцией и рекомендациями. Прошивки для навигаторов, карты. Разнообразные игры, для Windows, Linux. В коллекцие есть и старые игры любых жанров, Rpg, Action, Shooter, strategy Множество дополнений, модификаций, сценариев для популярных игр в жанре экш, рпг, гонки, стратегии, логические игры. Множество аддонов и сценариев для Microsoft Flight Simulator Большая коллекция книг, учебников. Если нет возможности купить печатное издание - смело скачивайте цифровую версию книги или, быть может, журнала. Не любите читать - можно загрузить бесплатно аудикнигу. Для веб дизайнеров и программистов так же найдется множество специализированного софта, таких как: редакторы с подсветкой, среды программирования, компоненты, системы управления базами данных, разнообразные скрипты и шаблоны. Не так давно у нас появился материал для автолюбителей и владельцев мото - оригинальные и неоригинальные каталоги запчастей, книги и журналы по ремонту и обслуживанию, видеоуроки, статьи по чип тюнингу, прошивкам. Процедура получения контента элементарная, достаточно просто скачать торрент файл и добавить его в загрузку в вашем торрент клиенте. Если у вас нет специального торрент клиента, вы можете его скачать у нас.