[iPad] Мария Магдалина / Mary Magdalene (Гарт Дэвис / Garth Davis ) [2018, Великобритания, США, Австралия, Драма, BDRip, SD (576p)] DUB + Original + sub (rus, fra, eng) 

Цитировать
Мария Магдалина / Mary Magdalene
«Её история будет рассказана впервые»
6.229 / 10 5.80 / 10
- Год выпуска: 2018
Страна: Великобритания, США, Австралия
Жанр: Драма
Продолжительность: 01:59:48
Перевод: Дублированный (Лицензия)
Оригинальная аудиодорожка: Есть
Cубтитры: Русские форсированные, Французские форсированные, Русские, Французские, Английские
Режиссёр: Гарт Дэвис
Сценарий: Хелен Эдмундсон, Филиппа Гослетт
Продюсер: Эйн Каннинг, Эмиль Шерман, Лиз Уоттс
Оператор: Грег Фрейзер
Композитор: Хильдур Гуднадоттир, Йохан Йоханнссон
Художник: Фиона Кромби, Кристина Онори, Саверио Саммали
Монтаж: Александр де Франчески, Мелани Оливер
В ролях: Руни Мара, Хоакин Феникс, Чиветель Эджиофор, Тахар Рахим, Ариана Лабед, Дени Меноше, Лубна Азабаль, Чеки Карио, Чарльз Бабалола, Тауфик Бархом
Сборы в мире: $11 576 194
Сборы в России: $176 327
Мировая премьера: 26 февраля 2018
Премьера (РФ): 5 апреля 2018, «UPI»
Релиз на DVD: 6 августа 2018, «НД Плэй»
Релиз на Blu-Ray: 6 августа 2018, «НД Плэй»
Описание: Рассказ об одной из самых загадочных личностей в мировой истории. Бросив вызов предрассудкам своего времени, Мария оставляет близких и присоединяется к группе единомышленников, лидером которых является Иисус из Назарета. Здесь она найдет свое место и окажется на судьбоносной дороге в Иерусалим.-Качество исходника: Blu-Ray (BlueBird)
Качество: BDRip
Тип: SD (576p)
Контейнер: M4V
Видео: H.264, 1024x464, 2.2:1, 2 200 Kbps, 23.976 fps
Аудио 1: Русский/Дублированный (Лицензия), AAC / 2.0 / 128 Kbps / 48.0 KHz
Аудио 2: Английский/Оригинальная дорожка , AAC / 2.0 / 128 Kbps / 48.0 KHz
Субтитры 1: Русские форсированные
Субтитры 2: Французские форсированные
Субтитры 3: Русские полные
Субтитры 4: Французские полные
Субтитры 5: Английские полные
-

iTunes Meta Tags

Sort Name: Mary Magdalene
XID: Apple:vendor_id:-2018-972321
contentID: 1353532031
Copyright: © 2018 Universal Studios. All Rights Reserved.
Screenwriters: Хелен Эдмундсон, Филиппа Гослетт
Producers: Эйн Каннинг, Эмиль Шерман, Лиз Уоттс
Director: Гарт Дэвис
Cast: Руни Мара, Хоакин Феникс, Чиветель Эджиофор, Тахар Рахим, Ариана Лабед, Дени Меноше, Лубна Азабаль, Чеки Карио, Чарльз Бабалола, Тауфик Бархом
Studio: Universal Pictures
Rating: 123
Long Description: Рассказ об одной из самых загадочных личностей в мировой истории. Бросив вызов предрассудкам своего времени, Мария оставляет близких и присоединяется к группе единомышленников, лидером которых является Иисус из Назарета. Здесь она найдет свое место и окажется на судьбоносной дороге в Иерусалим.
Description: Рассказ об одной из самых загадочных личностей в мировой истории. Бросив вызов предрассудкам своего времени, Мария оставляет близких и присоединяется к группе единомышленников, лидером которых является Иисус из Назарета. Здесь она найдет свое место и окажется на судьбоносной дороге в Иерусалим.
Release Date: 2018-02-26T08:00:00Z
Genre: Drama
Artist: Garth Davis
Name: Mary Magdalene

MediaInfo

General
Complete name : /Users/imac/HandBrake/Mary.Magdalene.(SD).(pk).m4v
Format : MPEG-4
Codec ID : M4V
File size : 2.06 GiB
Duration : 1h 59mn
Overall bit rate mode : Variable
Overall bit rate : 2 463 Kbps
Movie name : Mary Magdalene
Performer : Garth Davis
Director : Гарт Дэвис
Actor : Руни Мара / Хоакин Феникс / Чиветель Эджиофор / Тахар Рахим / Ариана Лабед / Дени Меноше / Лубна Азабаль / Чеки Карио / Чарльз Бабалола / Тауфик Бархом
Screenplay by : Хелен Эдмундсон / Филиппа Гослетт
Producer : Эйн Каннинг / Эмиль Шерман / Лиз Уоттс
Production studio : Universal Pictures
Genre : Drama
ContentType : Short Film
Description : Рассказ об одной из самых загадочных личностей в мировой истории. Бросив вызов предрассудкам своего времени, Мария оставляет близких и присоединяется к группе единомышленников, лидером которых является Иисус из Назарета. Здесь она найдет свое место и окажется на судьбоносной дороге в Иерусалим.
Recorded date : UTC 2018-02-26 08:00:00
Encoded date : UTC 2018-08-26 11:21:17
Tagged date : UTC 2018-08-26 11:23:06
Copyright : © 2018 Universal Studios. All Rights Reserved.
Cover : Yes
Rating : None
Title/Sort : Mary Magdalene
LongDescription : Рассказ об одной из самых загадочных личностей в мировой истории. Бросив вызов предрассудкам своего времени, Мария оставляет близких и присоединяется к группе единомышленников, лидером которых является Иисус из Назарета. Здесь она найдет свое место и окажется на судьбоносной дороге в Иерусалим.
AppleStoreCatalogID : 1353532031
Vendor : Apple:vendor_id:2018-972321
ContentRating : uk-movie|12|300|
Video #1
ID : 1
Format : AVC
Format/Info : Advanced Video Codec
Format profile : High@L3.1
Format settings, CABAC : Yes
Format settings, ReFrames : 9 frames
Codec ID : avc1
Codec ID/Info : Advanced Video Coding
Duration : 1h 59mn
Source duration : 1h 59mn
Bit rate : 2 200 Kbps
Width : 1 024 pixels
Height : 464 pixels
Display aspect ratio : 2.2:1
Frame rate mode : Variable
Frame rate : 23.976 fps
Minimum frame rate : 23.974 fps
Maximum frame rate : 23.981 fps
Color space : YUV
Chroma subsampling : 4:2:0
Bit depth : 8 bits
Scan type : Progressive
Bits/(Pixel*Frame) : 0.193
Stream size : 1.84 GiB (89%)
Source stream size : 1.84 GiB (89%)
Title : Main Program
Writing library : x264 core 155 r2901 7d0ff22
Encoding settings : cabac=1 / ref=9 / deblock=1:0:0 / analyse=0x3:0x113 / me=umh / subme=9 / psy=1 / psy_rd=1.00:0.00 / mixed_ref=1 / me_range=32 / chroma_me=1 / trellis=1 / 8x8dct=1 / cqm=0 / deadzone=21,11 / fast_pskip=1 / chroma_qp_offset=-2 / threads=14 / lookahead_threads=1 / sliced_threads=0 / nr=0 / decimate=1 / interlaced=0 / bluray_compat=0 / constrained_intra=0 / bframes=6 / b_pyramid=2 / b_adapt=2 / b_bias=0 / direct=1 / weightb=1 / open_gop=0 / weightp=2 / keyint=240 / keyint_min=24 / scenecut=40 / intra_refresh=0 / rc_lookahead=40 / rc=2pass / mbtree=1 / bitrate=2200 / ratetol=1.0 / qcomp=0.60 / qpmin=0 / qpmax=69 / qpstep=4 / cplxblur=20.0 / qblur=0.5 / ip_ratio=1.40 / aq=1:1.00
Language : English
Encoded date : UTC 2018-08-26 11:21:18
Tagged date : UTC 2018-08-26 11:21:24
Color range : Limited
Color primaries : BT.709
Transfer characteristics : BT.709
Matrix coefficients : BT.709
Video #2
ID : 10
Format : JPEG
Codec ID : jpeg
Duration : 1h 59mn
Bit rate mode : Variable
Bit rate : 701 bps
Width : 640 pixels
Height : 290 pixels
Display aspect ratio : 2.2:1
Frame rate mode : Variable
Frame rate : 0.003 fps
Minimum frame rate : 0.002 fps
Maximum frame rate : 0.006 fps
Color space : YUV
Chroma subsampling : 4:2:0
Bit depth : 8 bits
Compression mode : Lossy
Bits/(Pixel*Frame) : 1.259
Stream size : 570 KiB (0%)
Title : Chapter Images
Language : English
Encoded date : UTC 2018-08-26 11:21:33
Tagged date : UTC 2018-08-26 11:21:34
Audio #1
ID : 2
Format : AAC
Format/Info : Advanced Audio Codec
Format profile : LC
Codec ID : 40
Duration : 1h 59mn
Source duration : 1h 59mn
Bit rate mode : Variable
Bit rate : 126 Kbps
Maximum bit rate : 192 Kbps
Channel(s) : 2 channels
Channel positions : Front: L R
Sampling rate : 48.0 KHz
Compression mode : Lossy
Stream size : 108 MiB (5%)
Source stream size : 108 MiB (5%)
Title : Russian Stereo
Language : Russian
Encoded date : UTC 2018-08-26 11:21:18
Tagged date : UTC 2018-08-26 11:21:28
Audio #2
ID : 3
Format : AAC
Format/Info : Advanced Audio Codec
Format profile : LC
Codec ID : 40
Duration : 1h 59mn
Source duration : 1h 59mn
Bit rate mode : Variable
Bit rate : 127 Kbps
Maximum bit rate : 194 Kbps
Channel(s) : 2 channels
Channel positions : Front: L R
Sampling rate : 48.0 KHz
Compression mode : Lossy
Stream size : 109 MiB (5%)
Source stream size : 109 MiB (5%)
Title : English Stereo
Language : English
Encoded date : UTC 2018-08-26 11:21:18
Tagged date : UTC 2018-08-26 11:21:28
Text #1
ID : 4
Format : Timed Text
Muxing mode : sbtl
Codec ID : tx3g
Duration : 1h 59mn
Bit rate mode : Variable
Bit rate : 2 bps
Stream size : 1.69 KiB (0%)
Title : Russian forced
Language : Russian
Encoded date : UTC 2018-08-26 11:21:18
Tagged date : UTC 2018-08-26 11:21:18
Text #2
ID : 5
Format : Timed Text
Muxing mode : sbtl
Codec ID : tx3g
Duration : 1h 59mn
Bit rate mode : Variable
Bit rate : 2 bps
Stream size : 1.97 KiB (0%)
Title : French forced
Language : French
Encoded date : UTC 2018-08-26 11:21:18
Tagged date : UTC 2018-08-26 11:21:18
Text #3
ID : 6
Format : Timed Text
Muxing mode : sbtl
Codec ID : tx3g
Duration : 1h 59mn
Bit rate mode : Variable
Bit rate : 43 bps
Stream size : 37.7 KiB (0%)
Title : Russian full
Language : Russian
Encoded date : UTC 2018-08-26 11:21:18
Tagged date : UTC 2018-08-26 11:21:18
Text #4
ID : 7
Format : Timed Text
Muxing mode : sbtl
Codec ID : tx3g
Duration : 1h 59mn
Bit rate mode : Variable
Bit rate : 32 bps
Stream size : 28.2 KiB (0%)
Title : French full
Language : French
Encoded date : UTC 2018-08-26 11:21:18
Tagged date : UTC 2018-08-26 11:21:18
Text #5
ID : 8
Format : Timed Text
Muxing mode : sbtl
Codec ID : tx3g
Duration : 1h 52mn
Bit rate mode : Variable
Bit rate : 33 bps
Stream size : 27.5 KiB (0%)
Title : English full
Language : English
Encoded date : UTC 2018-08-26 11:21:18
Tagged date : UTC 2018-08-26 11:21:18
Menu #1
00:00:00.000 : Chapter 1
00:06:50.201 : Chapter 2
00:12:28.373 : Chapter 3
00:19:45.643 : Chapter 4
00:23:35.748 : Chapter 5
00:31:02.527 : Chapter 6
00:37:16.693 : Chapter 7
00:44:48.436 : Chapter 8
00:50:57.972 : Chapter 9
00:55:42.881 : Chapter 10
01:01:55.962 : Chapter 11
01:09:28.331 : Chapter 12
01:13:55.014 : Chapter 13
01:16:31.337 : Chapter 14
01:24:27.563 : Chapter 15
01:29:15.517 : Chapter 16
01:33:58.883 : Chapter 17
01:39:33.926 : Chapter 18
01:44:51.494 : Chapter 19
01:53:25.007 : Chapter 20
Menu #2
ID : 9
Codec ID : text
Duration : 1h 59mn
Language : English
Encoded date : UTC 2018-08-26 11:21:28
Tagged date : UTC 2018-08-26 11:21:28
00:00:00.000 : Chapter 1
00:06:50.201 : Chapter 2
00:12:28.373 : Chapter 3
00:19:45.643 : Chapter 4
00:23:35.748 : Chapter 5
00:31:02.527 : Chapter 6
00:37:16.693 : Chapter 7
00:44:48.436 : Chapter 8
00:50:57.972 : Chapter 9
00:55:42.881 : Chapter 10
01:01:55.962 : Chapter 11
01:09:28.331 : Chapter 12
01:13:55.014 : Chapter 13
01:16:31.337 : Chapter 14
01:24:27.563 : Chapter 15
01:29:15.517 : Chapter 16
01:33:58.883 : Chapter 17
01:39:33.926 : Chapter 18
01:44:51.494 : Chapter 19
01:53:25.007 : Chapter 20
Bit rate mode : VBR

x264 лог

x264 [info]: frame I:1321  Avg QP:12.04  size: 82216
x264 [info]: frame P:35267 Avg QP:14.56  size: 24126
x264 [info]: frame B:135756 Avg QP:16.50  size:  7493
x264 [info]: consecutive B-frames:  1.6%  3.1%  6.6% 10.0% 15.5% 52.5% 10.7%
x264 [info]: mb I  I16..4: 10.5% 72.7% 16.7%
x264 [info]: mb P  I16..4:  1.2%  8.6%  1.5%  P16..4: 35.7% 29.8% 17.7%  0.0%  0.0%    skip: 5.4%
x264 [info]: mb B  I16..4:  0.1%  1.1%  0.1%  B16..8: 42.3% 13.4%  3.6%  direct: 3.8%  skip:35.5%  L0:47.7% L1:44.8% BI: 7.5%
x264 [info]: 8x8 transform intra:77.3% inter:69.3%
x264 [info]: coded y,uvDC,uvAC intra: 91.0% 77.5% 52.9% inter: 28.5% 19.2% 2.6%
x264 [info]: i16 v,h,dc,p: 11% 10% 11% 67%
x264 [info]: i8 v,h,dc,ddl,ddr,vr,hd,vl,hu:  9%  7%  5% 10% 15% 15% 14% 13% 12%
x264 [info]: i4 v,h,dc,ddl,ddr,vr,hd,vl,hu:  7%  6%  3% 10% 17% 16% 15% 13% 13%
x264 [info]: i8c dc,h,v,p: 42% 26% 18% 14%
x264 [info]: Weighted P-Frames: Y:4.3% UV:1.0%
x264 [info]: ref P L0: 47.5%  8.2% 17.0%  7.5%  6.1%  4.5%  4.2%  2.5%  2.3%  0.1%  0.0%
x264 [info]: ref B L0: 67.6% 13.4%  7.5%  4.0%  3.0%  2.5%  1.6%  0.4%
x264 [info]: ref B L1: 92.3%  7.7%
x264 [info]: kb/s:2199.84

Скриншоты

-

Релиз подготовлен для просмотра на Apple TV, iPad, iPhone, iPod Touch.
Для просмотра данного релиза на компьютере с ОС Windows рекомендуется использовать VLC media player
Вы не можете начинать темы
Вы не можете отвечать на сообщения
Вы не можете редактировать свои сообщения
Вы не можете удалять свои сообщения
Вы не можете голосовать в опросах
Вы не можете прикреплять файлы к сообщениям
Вы можете скачивать файлы
!ВНИМАНИЕ!

Сайт не предоставляет электронные версии произведений, а занимается лишь коллекционированием и каталогизацией ссылок, присылаемых и публикуемых на форуме нашими читателями. Если вы являетесь правообладателем какого-либо представленного материала и не желаете, чтобы ссылка на него находилась в нашем каталоге, свяжитесь с нами, и мы незамедлительно удалим ее. Файлы для обмена на трекере предоставлены пользователями сайта, и администрация не несет ответственности за их содержание. Просьба не заливать файлы, защищенные авторскими правами, а также файлы нелегального содержания!

Искали программы, игры, дополнения, музыка mp3, аниме, аудио книги, журналы? Добро пожаловать на свободный торрент трекер Torrents, у нас можно скачать бесплатно, без смс и регистрации и прочих ограничений лучшие, отборные сборки программ, игр. Скачать торрентом не составит труда даже не опытному пользователю. Раздачи ежедневно обновляются, только лучшие и качественные раздачи, подробные описания и скриншоты. Огромная коллекция программ для работы со звуком, графикой, дизайном, а так же множество плагинов и инструментов к ним с подробной инструкцией и рекомендациями. Прошивки для навигаторов, карты. Разнообразные игры, для Windows, Linux. В коллекцие есть и старые игры любых жанров, Rpg, Action, Shooter, strategy Множество дополнений, модификаций, сценариев для популярных игр в жанре экш, рпг, гонки, стратегии, логические игры. Множество аддонов и сценариев для Microsoft Flight Simulator Большая коллекция книг, учебников. Если нет возможности купить печатное издание - смело скачивайте цифровую версию книги или, быть может, журнала. Не любите читать - можно загрузить бесплатно аудикнигу. Для веб дизайнеров и программистов так же найдется множество специализированного софта, таких как: редакторы с подсветкой, среды программирования, компоненты, системы управления базами данных, разнообразные скрипты и шаблоны. Не так давно у нас появился материал для автолюбителей и владельцев мото - оригинальные и неоригинальные каталоги запчастей, книги и журналы по ремонту и обслуживанию, видеоуроки, статьи по чип тюнингу, прошивкам. Процедура получения контента элементарная, достаточно просто скачать торрент файл и добавить его в загрузку в вашем торрент клиенте. Если у вас нет специального торрент клиента, вы можете его скачать у нас.