[iPad] Клуб миллиардеров / Billionaire Boys Club (Джеймс Кокс / James Cox ) [2018, США, Триллер, драма, биография, WEB-DLRip, SD (576p)] AMAZON DUB + Original + sub (eng) 

Цитировать
Клуб миллиардеров / Billionaire Boys Club
«Скажи им правду, если хочешь обмануть»
5.650 / 10 5.60 / 10
- Год выпуска: 2018
Страна: США
Жанр: Триллер, драма, биография
Продолжительность: 01:48:19
Перевод: Дублированный (iTunes)
Оригинальная аудиодорожка: Есть
Cубтитры: Английские
Режиссёр: Джеймс Кокс
Сценарий: Джеймс Кокс, Кэптэйн Маунзер
Продюсер: Кассиан Элвис, Кристофер Лемоул, Холли Вирсма
Оператор: Джеймс М. Муро
Композитор: Джоэл Дж. Ричард
Художник: Франко-Джакомо Карбоне, Matthew Gatlin, Терри Андерсон
Монтаж: Эми Шварц, Глен Скэнтлебери
В ролях: Энсел Элгорт, Кевин Спейси, Тэрон Эджертон, Эмма Робертс, Райан Роттман, Джереми Ирвин, Томас Кокерел, Боким Вудбайн, Барни Харрис, Валид Зуэйтер
Сборы в России: $793 322
Мировая премьера: 17 июля 2018
Премьера (РФ): 19 июля 2018, «Каскад фильм»
Цифровой релиз: 20 августа 2018, «НД Плэй»
Описание: Лос-Анджелес начала 1980-х. Компания молодых людей решает провернуть аферу, благоприятный исход которой сулит огромные деньги. Схема обогащения оказывается жизнеспособной и вместе с тем — смертельной.-Качество исходника: WEB-DL 1080p AMZN Version (BlueBird)
Качество: WEB-DLRip
Тип: SD (576p)
Контейнер: M4V
Видео: H.264, 1024x432, 2.40:1, 2 200 Kbps, 23.976 fps
Аудио 1: Русский/Дублированный (iTunes), AAC / 2.0 / 128 Kbps / 48.0 KHz
Аудио 2: Английский/Оригинальная дорожка , AAC / 2.0 / 128 Kbps / 48.0 KHz
Субтитры: Английские полные
-

iTunes Meta Tags

Sort Name: Billionaire Boys Club
XID: Apple:vendor_id:2018-943645
contentID: 1398490764
Copyright: © 2017, BB Club, LLC. All rights reserved.
Screenwriters: Джеймс Кокс, Кэптэйн Маунзер
Producers: Кассиан Элвис, Кристофер Лемоул, Холли Вирсма
Director: Джеймс Кокс
Cast: Энсел Элгорт, Кевин Спейси, Тэрон Эджертон, Эмма Робертс, Райан Роттман, Джереми Ирвин, Томас Кокерел, Боким Вудбайн, Барни Харрис, Валид Зуэйтер
Studio: Vertical Entertainment
Rating Annotation: Rated R for language throughout, drug use, some violence and sexual content.
Rating: 5
Long Description: Лос-Анджелес начала 1980-х. Компания молодых людей решает провернуть аферу, благоприятный исход которой сулит огромные деньги. Схема обогащения оказывается жизнеспособной и вместе с тем - смертельной.
Description: Лос-Анджелес начала 1980-х. Компания молодых людей решает провернуть аферу, благоприятный исход которой сулит огромные деньги. Схема обогащения оказывается жизнеспособной и вместе с тем - смертельной.
Release Date: 2018-07-17T08:00:00Z
Genre: Thriller
Artist: James Cox
Name: Billionaire Boys Club

MediaInfo

General
Complete name : /Users/imac/HandBrake/Billionaire.Boys.Club.(SD).(pk).m4v
Format : MPEG-4
Codec ID : M4V
File size : 1.86 GiB
Duration : 1h 48mn
Overall bit rate mode : Variable
Overall bit rate : 2 459 Kbps
Movie name : Billionaire Boys Club
Performer : James Cox
Director : Джеймс Кокс
Actor : Энсел Элгорт / Кевин Спейси / Тэрон Эджертон / Эмма Робертс / Райан Роттман / Джереми Ирвин / Томас Кокерел / Боким Вудбайн / Барни Харрис / Валид Зуэйтер
Screenplay by : Джеймс Кокс / Кэптэйн Маунзер
Producer : Кассиан Элвис / Кристофер Лемоул / Холли Вирсма
Production studio : Vertical Entertainment
Genre : Thriller
ContentType : Short Film
Description : Лос-Анджелес начала 1980-х. Компания молодых людей решает провернуть аферу, благоприятный исход которой сулит огромные деньги. Схема обогащения оказывается жизнеспособной и вместе с тем - смертельной.
Recorded date : UTC 2018-07-17 08:00:00
Encoded date : UTC 2018-08-23 10:33:49
Tagged date : UTC 2018-08-23 10:35:44
Copyright : © 2017, BB Club, LLC. All rights reserved.
Cover : Yes
Rating : None
Title/Sort : Billionaire Boys Club
LongDescription : Лос-Анджелес начала 1980-х. Компания молодых людей решает провернуть аферу, благоприятный исход которой сулит огромные деньги. Схема обогащения оказывается жизнеспособной и вместе с тем - смертельной.
AppleStoreCatalogID : 1398490764
Vendor : Apple:vendor_id:2018-943645
ContentRating : mpaa|R|400|Rated R for language throughout, drug use, some violence and sexual content.
Video #1
ID : 1
Format : AVC
Format/Info : Advanced Video Codec
Format profile : High@L3.1
Format settings, CABAC : Yes
Format settings, ReFrames : 9 frames
Codec ID : avc1
Codec ID/Info : Advanced Video Coding
Duration : 1h 48mn
Source duration : 1h 48mn
Bit rate : 2 200 Kbps
Width : 1 024 pixels
Height : 432 pixels
Display aspect ratio : 2.40:1
Frame rate mode : Variable
Frame rate : 23.976 fps
Minimum frame rate : 23.974 fps
Maximum frame rate : 23.981 fps
Color space : YUV
Chroma subsampling : 4:2:0
Bit depth : 8 bits
Scan type : Progressive
Bits/(Pixel*Frame) : 0.207
Stream size : 1.66 GiB (89%)
Source stream size : 1.66 GiB (89%)
Title : Main Program
Writing library : x264 core 155 r2901 7d0ff22
Encoding settings : cabac=1 / ref=9 / deblock=1:0:0 / analyse=0x3:0x113 / me=umh / subme=9 / psy=1 / psy_rd=1.00:0.00 / mixed_ref=1 / me_range=32 / chroma_me=1 / trellis=1 / 8x8dct=1 / cqm=0 / deadzone=21,11 / fast_pskip=1 / chroma_qp_offset=-2 / threads=13 / lookahead_threads=1 / sliced_threads=0 / nr=0 / decimate=1 / interlaced=0 / bluray_compat=0 / constrained_intra=0 / bframes=6 / b_pyramid=2 / b_adapt=2 / b_bias=0 / direct=1 / weightb=1 / open_gop=0 / weightp=2 / keyint=240 / keyint_min=24 / scenecut=40 / intra_refresh=0 / rc_lookahead=40 / rc=2pass / mbtree=1 / bitrate=2200 / ratetol=1.0 / qcomp=0.60 / qpmin=0 / qpmax=69 / qpstep=4 / cplxblur=20.0 / qblur=0.5 / ip_ratio=1.40 / aq=1:1.00
Language : English
Encoded date : UTC 2018-08-23 10:33:50
Tagged date : UTC 2018-08-23 10:33:55
Color range : Limited
Color primaries : BT.709
Transfer characteristics : BT.709
Matrix coefficients : BT.709
Video #2
ID : 6
Format : JPEG
Codec ID : jpeg
Duration : 1h 48mn
Bit rate mode : Variable
Bit rate : 519 bps
Width : 640 pixels
Height : 270 pixels
Display aspect ratio : 2.40:1
Frame rate mode : Variable
Frame rate : 0.002 fps
Minimum frame rate : 0.001 fps
Maximum frame rate : 0.003 fps
Color space : YUV
Chroma subsampling : 4:2:0
Bit depth : 8 bits
Compression mode : Lossy
Bits/(Pixel*Frame) : 1.502
Stream size : 348 KiB (0%)
Title : Chapter Images
Language : English
Encoded date : UTC 2018-08-23 10:34:01
Tagged date : UTC 2018-08-23 10:34:01
Audio #1
ID : 2
Format : AAC
Format/Info : Advanced Audio Codec
Format profile : LC
Codec ID : 40
Duration : 1h 48mn
Source duration : 1h 48mn
Bit rate mode : Variable
Bit rate : 125 Kbps
Maximum bit rate : 191 Kbps
Channel(s) : 2 channels
Channel positions : Front: L R
Sampling rate : 48.0 KHz
Compression mode : Lossy
Stream size : 97.1 MiB (5%)
Source stream size : 97.1 MiB (5%)
Title : Russian Stereo
Language : Russian
Encoded date : UTC 2018-08-23 10:33:50
Tagged date : UTC 2018-08-23 10:33:59
Audio #2
ID : 3
Format : AAC
Format/Info : Advanced Audio Codec
Format profile : LC
Codec ID : 40
Duration : 1h 48mn
Source duration : 1h 48mn
Bit rate mode : Variable
Bit rate : 125 Kbps
Maximum bit rate : 193 Kbps
Channel(s) : 2 channels
Channel positions : Front: L R
Sampling rate : 48.0 KHz
Compression mode : Lossy
Stream size : 97.2 MiB (5%)
Source stream size : 97.2 MiB (5%)
Title : English Stereo
Language : English
Encoded date : UTC 2018-08-23 10:33:50
Tagged date : UTC 2018-08-23 10:33:59
Text
ID : 4
Format : Timed Text
Muxing mode : sbtl
Codec ID : tx3g
Duration : 1h 36mn
Bit rate mode : Variable
Bit rate : 88 bps
Stream size : 62.5 KiB (0%)
Title : English full
Language : English
Encoded date : UTC 2018-08-23 10:33:50
Tagged date : UTC 2018-08-23 10:33:50
Menu #1
00:00:00.000 : 1
00:11:41.000 : 2
00:19:00.000 : 3
00:31:09.000 : 4
00:40:15.000 : 5
00:51:18.000 : 6
01:01:57.000 : 7
01:12:32.000 : 8
01:21:45.000 : 9
01:30:47.000 : 10
01:37:09.000 : 11
Menu #2
ID : 5
Codec ID : text
Duration : 1h 48mn
Language : English
Encoded date : UTC 2018-08-23 10:33:59
Tagged date : UTC 2018-08-23 10:33:59
00:00:00.000 : 1
00:11:41.000 : 2
00:19:00.000 : 3
00:31:09.000 : 4
00:40:15.000 : 5
00:51:18.000 : 6
01:01:57.000 : 7
01:12:32.000 : 8
01:21:45.000 : 9
01:30:47.000 : 10
01:37:09.000 : 11
Bit rate mode : VBR

x264 лог

x264 [info]: frame I:1659  Avg QP:11.58  size: 71622
x264 [info]: frame P:36390 Avg QP:14.71  size: 23489
x264 [info]: frame B:117772 Avg QP:17.12  size:  6902
x264 [info]: consecutive B-frames:  3.4%  4.4%  9.8% 18.3% 15.0% 40.0%  9.2%
x264 [info]: mb I  I16..4: 13.0% 64.2% 22.8%
x264 [info]: mb P  I16..4:  3.2% 15.2%  3.7%  P16..4: 27.9% 24.6% 13.6%  0.0%  0.0%    skip:11.8%
x264 [info]: mb B  I16..4:  0.4%  1.4%  0.3%  B16..8: 32.2% 13.6%  3.7%  direct: 5.9%  skip:42.5%  L0:42.5% L1:39.5% BI:18.0%
x264 [info]: 8x8 transform intra:67.7% inter:64.2%
x264 [info]: coded y,uvDC,uvAC intra: 76.3% 88.2% 72.6% inter: 26.0% 27.2% 7.1%
x264 [info]: i16 v,h,dc,p: 46% 12%  7% 34%
x264 [info]: i8 v,h,dc,ddl,ddr,vr,hd,vl,hu: 15% 10% 13%  8% 10% 12% 10% 11% 11%
x264 [info]: i4 v,h,dc,ddl,ddr,vr,hd,vl,hu: 16% 10%  7%  8% 13% 14% 11% 10% 11%
x264 [info]: i8c dc,h,v,p: 49% 20% 19% 12%
x264 [info]: Weighted P-Frames: Y:2.9% UV:1.7%
x264 [info]: ref P L0: 53.5% 11.5% 15.9%  5.7%  4.6%  3.2%  2.6%  1.4%  1.5%  0.1%  0.0%
x264 [info]: ref B L0: 78.6% 10.7%  4.6%  2.3%  1.6%  1.3%  0.7%  0.2%
x264 [info]: ref B L1: 95.5%  4.5%
x264 [info]: kb/s:2199.07

Скриншоты

-

Релиз подготовлен для просмотра на Apple TV, iPad, iPhone, iPod Touch.
Для просмотра данного релиза на компьютере с ОС Windows рекомендуется использовать VLC media player
Вы не можете начинать темы
Вы не можете отвечать на сообщения
Вы не можете редактировать свои сообщения
Вы не можете удалять свои сообщения
Вы не можете голосовать в опросах
Вы не можете прикреплять файлы к сообщениям
Вы можете скачивать файлы
!ВНИМАНИЕ!

Сайт не предоставляет электронные версии произведений, а занимается лишь коллекционированием и каталогизацией ссылок, присылаемых и публикуемых на форуме нашими читателями. Если вы являетесь правообладателем какого-либо представленного материала и не желаете, чтобы ссылка на него находилась в нашем каталоге, свяжитесь с нами, и мы незамедлительно удалим ее. Файлы для обмена на трекере предоставлены пользователями сайта, и администрация не несет ответственности за их содержание. Просьба не заливать файлы, защищенные авторскими правами, а также файлы нелегального содержания!

Искали программы, игры, дополнения, музыка mp3, аниме, аудио книги, журналы? Добро пожаловать на свободный торрент трекер Torrents, у нас можно скачать бесплатно, без смс и регистрации и прочих ограничений лучшие, отборные сборки программ, игр. Скачать торрентом не составит труда даже не опытному пользователю. Раздачи ежедневно обновляются, только лучшие и качественные раздачи, подробные описания и скриншоты. Огромная коллекция программ для работы со звуком, графикой, дизайном, а так же множество плагинов и инструментов к ним с подробной инструкцией и рекомендациями. Прошивки для навигаторов, карты. Разнообразные игры, для Windows, Linux. В коллекцие есть и старые игры любых жанров, Rpg, Action, Shooter, strategy Множество дополнений, модификаций, сценариев для популярных игр в жанре экш, рпг, гонки, стратегии, логические игры. Множество аддонов и сценариев для Microsoft Flight Simulator Большая коллекция книг, учебников. Если нет возможности купить печатное издание - смело скачивайте цифровую версию книги или, быть может, журнала. Не любите читать - можно загрузить бесплатно аудикнигу. Для веб дизайнеров и программистов так же найдется множество специализированного софта, таких как: редакторы с подсветкой, среды программирования, компоненты, системы управления базами данных, разнообразные скрипты и шаблоны. Не так давно у нас появился материал для автолюбителей и владельцев мото - оригинальные и неоригинальные каталоги запчастей, книги и журналы по ремонту и обслуживанию, видеоуроки, статьи по чип тюнингу, прошивкам. Процедура получения контента элементарная, достаточно просто скачать торрент файл и добавить его в загрузку в вашем торрент клиенте. Если у вас нет специального торрент клиента, вы можете его скачать у нас.